西西论坛

 找回密码
 立即注册
搜索

[我制服了魔鬼][纯净版][BT下载][BD-MKV/8.43GB][双语字幕][1080P][高清无水印片源] . ...

[复制链接]
admin 发表于 7 天前 | 显示全部楼层 |阅读模式
-->4530a4747e498150f1e10a82dd4b5e30.jpg



◎译  名 我制服了魔鬼 / A Man in the Dark
◎片  名 I Trapped the Devil
◎年  代 2019
◎产  地 美国
◎类  别 恐怖
◎语  言 英语
◎上映日期 2019-04-12(Imagine Film Festival)
◎IMDb评分  4.8/10 from 2085 users
◎片  长 82分钟
◎导  演 乔许·罗博 Josh Lobo  
◎编  剧 乔许·罗博 Josh Lobo  
◎主  演 克里斯·沙利文 Chris Sullivan
       乔赛琳·唐娜休 Jocelin Donahue
       AJ·鲍恩 AJ Bowen


◎标  签 恐怖 | 美国 | 2019 | 悬疑 | 美国电影 | 犯罪 | 差 | 恶魔

◎简  介  

  Christmas is supposed to be a time for peace and joyful family reunions. But when Matt and his wife Karen show up unannounced at the home of his estranged brother Steve to celebrate the holidays, they are instead greeted with a horrifying surprise: trapped in the basement is a man. But not just any man. Steve believes that his hostage is none other than the devil himself.
General
Unique ID                                : 195526251342816220437757845406485009796 (0x9318FC7A0F6BF89F5CAEA251B7675584)
Complete name                            : Q.COM.mkv
Format                                   : Matroska
Format version                           : Version 4
File size                                : 8.43 GiB
Duration                                 : 1 h 23 min
Overall bit rate                         : 14.4 Mb/s
Movie name                               : I Trapped the Devil 2019 1080p BluRay DTS
Encoded date                             : UTC 2021-07-19 00:07:48
Writing application                      : mkvmerge v38.0.0 ('The Silent Type') 64-bit
Writing library                          : libebml v1.3.9 + libmatroska v1.5.2

Video
ID                                       : 1
Format                                   : HEVC
Format/Info                              : High Efficiency Video Coding
Format profile                           : Main @High
Codec ID                                 : V_MPEGH/ISO/HEVC
Duration                                 : 1 h 23 min
Bit rate                                 : 12.8 Mb/s
Width                                    : 1 920 pixels
Height                                   : 808 pixels
Display aspect ratio                     : 2.40:1
Frame rate mode                          : Constant
Frame rate                               : 23.976 (24000/1001) FPS
Color space                              : YUV
Chroma subsampling                       : 4:2:0
Bit depth                                : 10 bits
Bits/(Pixel*Frame)                       : 0.345
Stream size                              : 7.52 GiB (89%)
Title                                    :
Writing library                          : x265 - H.265/HEVC codec
Default                                  : Yes
Forced                                   : No

Audio
ID                                       : 2
Format                                   : DTS
Format/Info                              : Digital Theater Systems
Codec ID                                 : A_DTS
Duration                                 : 1 h 23 min
Bit rate mode                            : Constant
Bit rate                                 : 1 509 kb/s
Channel(s)                               : 6 channels
Channel layout                           : C L R Ls Rs LFE
Sampling rate                            : 48.0 kHz
Frame rate                               : 93.750 FPS (512 SPF)
Bit depth                                : 24 bits
Compression mode                         : Lossy
Stream size                              : 905 MiB (10%)
Title                                    : English
Language                                 : English
Default                                  : Yes
Forced                                   : No

Text #1
ID                                       : 3
Format                                   : PGS
Muxing mode                              : zlib
Codec ID                                 : S_HDMV/PGS
Codec ID/Info                            : Picture based subtitle format used on BDs/HD-DVDs
Duration                                 : 1 h 16 min
Bit rate                                 : 14.3 kb/s
Count of elements                        : 753
Stream size                              : 7.86 MiB (0%)
Title                                    : CHS
Language                                 : Chinese
Default                                  : Yes
Forced                                   : No

Text #2
ID                                       : 4
Format                                   : PGS
Muxing mode                              : zlib
Codec ID                                 : S_HDMV/PGS
Codec ID/Info                            : Picture based subtitle format used on BDs/HD-DVDs
Duration                                 : 1 h 16 min
Bit rate                                 : 14.6 kb/s
Count of elements                        : 753
Stream size                              : 7.98 MiB (0%)
Title                                    : CHT
Language                                 : Chinese
Default                                  : No
Forced                                   : No

Text #3
ID                                       : 5
Format                                   : PGS
Muxing mode                              : zlib
Codec ID                                 : S_HDMV/PGS
Codec ID/Info                            : Picture based subtitle format used on BDs/HD-DVDs
Duration                                 : 1 h 16 min
Bit rate                                 : 22.3 kb/s
Count of elements                        : 754
Stream size                              : 12.2 MiB (0%)
Title                                    : CHS&ENG
Language                                 : Chinese
Default                                  : No
Forced                                   : No

Text #4
ID                                       : 6
Format                                   : PGS
Muxing mode                              : zlib
Codec ID                                 : S_HDMV/PGS
Codec ID/Info                            : Picture based subtitle format used on BDs/HD-DVDs
Duration                                 : 1 h 16 min
Bit rate                                 : 22.5 kb/s
Count of elements                        : 754
Stream size                              : 12.3 MiB (0%)
Title                                    : CHT&ENG
Language                                 : Chinese
Default                                  : No
Forced                                   : No

Menu
00:00:00.000                             : en:Chapter 01
00:06:18.962                             : en:Chapter 02
00:14:42.131                             : en:Chapter 03
00:21:58.359                             : en:Chapter 04
00:28:42.387                             : en:Chapter 05
00:34:55.844                             : en:Chapter 06
00:43:06.626                             : en:Chapter 07
00:49:46.192                             : en:Chapter 08
00:57:49.174                             : en:Chapter 09
01:04:14.851                             : en:Chapter 10
01:10:35.982                             : en:Chapter 11
01:14:26.504                             : en:Chapter 12




                                                                                                                                                                                                        
                                                                                                                                                                                                                                                                                                                                                                                                                                                                                                                                                                                                                                                                                                                                                                                                                                                        
8df77cba2a6916b5bd88a5a0a9eca25e.torrent (25.69 KB, 下载次数: 0)

回复

使用道具 举报

小黑屋|西西论坛

本网站所有资源来自网络,如无意中侵犯了您的权益,请发邮件至 [email protected],立即清除相关链接

GMT+8, 2021-7-27 10:22 , Processed in 0.136966 second(s), 17 queries .

Powered by Discuz! X3.2

© 2001-2013 Comsenz Inc.

快速回复 返回顶部 返回列表