西西论坛

 找回密码
 立即注册
搜索

[罗小黑战记][纯净版][BT下载][BD-MKV/4.45GB][国语音轨/中文字幕][1080P][治愈,温情, ...

[复制链接]
admin 发表于 4 天前 | 显示全部楼层 |阅读模式
-->9eaead5c4d03fc6535cb94e79b23bc1e.jpg



◎译  名 罗小黑战记 / 罗小黑战记大电影 / The Legend of Hei
◎年  代 2019
◎产  地 中国大陆
◎类  别 动作 / 动画 / 奇幻
◎语  言 汉语普通话
◎上映日期 2019-09-07(中国大陆) / 2019-08-27(大规模点映)
◎片  长 101分钟
◎导  演 木头 MTJJ (id:1379633)
       皇贞季 Zhen Wang (id:1334351)
       顾杰  (id:1436096)
◎编  剧 木头 MTJJ (id:1379633)
       彭可欣 Kexin Peng (id:1422745)
◎演  员 山新 Shuang Wang (id:1334349)
       郝祥海 Xianghai Hao (id:1340968)
       刘明月 Mingyue Liu (id:1381516)
       花泽香菜 Kana Hanazawa (id:1034028)
       宫野真守 Mamoru Miyano (id:1018576)
       樱井孝宏 Takahiro Sakurai (id:1019264)
       大塚芳忠 H?ch? ?tsuka (id:1164375)
       长岛雄一 Y?ichi Nagashima (id:1130371)
       丰崎爱生 Aki Toyosaki (id:1274459)
       齐藤壮马 Soma Saito (id:1341567)
       杉田智和 Tomokazu Sugita (id:1028815)
       松冈祯丞 Yoshitsugu Matsuoka (id:1314691)
       水濑祈 Inori Minase (id:1339673)
       丛芳冰 Fangbing Cong (id:1413701)
       马文卓 Wenzhuo Ma (id:1413590)
       许亮 Liang Xu (id:1443618)
       双笙 Shuang Sheng (id:1456922)
       皇贞季 Zhen Wang (id:1334351)

◎标  签 治愈 / 温情 / 动画 / 动漫 / 萌 / 中国大陆 / 二次元 / 成长

◎简  介
  在熙攘的人类世界里,很多妖精隐匿其中,他们与人类相安无事地生活着。猫妖罗小黑因为家园被破坏,开始了它的流浪之旅。这场旅途中惺惺相惜的妖精同类与和谐包容的人类伙伴相继出现,让小黑陷入了两难抉择,究竟何处才是真正的归属?                                    
                                

◎获奖情况 (共3项)
  第33届中国电影金鸡奖 (2020)
  最佳美术片(提名)

  第6届豆瓣电影年度榜单 (2019)
  评分最高的华语电影(提名)
  评分最高的动画片(提名)

General
Unique ID                                : 87251772755366861495221801726099739201 (0x41A4148701C9EE89E25AAE60773A5241)
Complete name                            : COM.mkv
Format                                   : Matroska
Format version                           : Version 4
File size                                : 4.45 GiB
Duration                                 : 1 h 41 min
Overall bit rate                         : 6 268 kb/s
Movie name                               : The Legend of Hei 2019 1080p BluRay DTS
Encoded date                             : UTC 2021-07-18 08:22:32
Writing application                      : mkvmerge v38.0.0 ('The Silent Type') 64-bit
Writing library                          : libebml v1.3.9 + libmatroska v1.5.2

Video
ID                                       : 1
Format                                   : HEVC
Format/Info                              : High Efficiency Video Coding
Format profile                           : Main @High
Codec ID                                 : V_MPEGH/ISO/HEVC
Duration                                 : 1 h 41 min
Bit rate                                 : 4 743 kb/s
Width                                    : 1 920 pixels
Height                                   : 804 pixels
Display aspect ratio                     : 2.40:1
Frame rate mode                          : Constant
Frame rate                               : 24.000 FPS
Color space                              : YUV
Chroma subsampling                       : 4:2:0
Bit depth                                : 10 bits
Bits/(Pixel*Frame)                       : 0.128
Stream size                              : 3.37 GiB (76%)
Title                                    : @HDSky
Writing library                          : x265 - H.265/HEVC codec
Default                                  : Yes
Forced                                   : No

Audio
ID                                       : 2
Format                                   : DTS
Format/Info                              : Digital Theater Systems
Codec ID                                 : A_DTS
Duration                                 : 1 h 41 min
Bit rate mode                            : Constant
Bit rate                                 : 1 509 kb/s
Channel(s)                               : 6 channels
Channel layout                           : C L R Ls Rs LFE
Sampling rate                            : 48.0 kHz
Frame rate                               : 93.750 FPS (512 SPF)
Bit depth                                : 24 bits
Compression mode                         : Lossy
Stream size                              : 1.07 GiB (24%)
Title                                    : Mandarin
Language                                 : Chinese
Default                                  : Yes
Forced                                   : No

Text #1
ID                                       : 3
Format                                   : PGS
Muxing mode                              : zlib
Codec ID                                 : S_HDMV/PGS
Codec ID/Info                            : Picture based subtitle format used on BDs/HD-DVDs
Duration                                 : 1 h 31 min
Bit rate                                 : 15.0 kb/s
Count of elements                        : 1899
Stream size                              : 9.85 MiB (0%)
Title                                    : CHS
Language                                 : Chinese
Default                                  : Yes
Forced                                   : No

Text #2
ID                                       : 4
Format                                   : PGS
Muxing mode                              : zlib
Codec ID                                 : S_HDMV/PGS
Codec ID/Info                            : Picture based subtitle format used on BDs/HD-DVDs
Duration                                 : 1 h 31 min
Bit rate                                 : 15.6 kb/s
Count of elements                        : 1899
Stream size                              : 10.2 MiB (0%)
Title                                    : CHT
Language                                 : Chinese
Default                                  : No
Forced                                   : No

Menu
00:00:00.000                             : en:Chapter 01
00:08:05.167                             : en:Chapter 02
00:17:40.875                             : en:Chapter 03
00:24:55.708                             : en:Chapter 04
00:33:40.083                             : en:Chapter 05
00:40:02.625                             : en:Chapter 06
00:45:36.542                             : en:Chapter 07
00:55:16.167                             : en:Chapter 08
01:03:11.375                             : en:Chapter 09
01:11:45.833                             : en:Chapter 10
01:19:40.792                             : en:Chapter 11
01:29:17.333                             : en:Chapter 12




                                                                                                                                                                                                        
                                                                                                                                                                                                                                                                                                                                                                                                                                                                                                                                                                                                                                                                                                                                                                                                                                                        
83f3ab75883c276214b8bf78d152c943.torrent (15.85 KB, 下载次数: 0)

回复

使用道具 举报

小黑屋|西西论坛

本网站所有资源来自网络,如无意中侵犯了您的权益,请发邮件至 [email protected],立即清除相关链接

GMT+8, 2021-7-24 05:14 , Processed in 0.165933 second(s), 17 queries .

Powered by Discuz! X3.2

© 2001-2013 Comsenz Inc.

快速回复 返回顶部 返回列表