西西论坛

 找回密码
 立即注册
搜索

[唐人街探案3][纯净版][BT下载][BD-MKV/14.05GB][国语音轨+中文字幕][1080P][喜剧,推 ...

[复制链接]
admin 发表于 2021-7-13 21:34:04 | 显示全部楼层 |阅读模式
-->e57defb88d23cc461b52005c9b6b8c7f.jpg



◎译  名 唐人街探案3 / 唐探3 / Detective Chinatown 3
◎年  代 2021
◎产  地 中国大陆 / 中国香港 / 日本
◎类  别 喜剧 / 悬疑
◎语  言 汉语普通话 / 日语 / 英语 / 泰语
◎上映日期 2021-02-12(中国大陆)
◎片  长 136分钟
◎导  演 陈思诚 Sicheng Chen (id:1274763)
◎编  剧 陈思诚 Sicheng Chen (id:1274763)
       张淳 Chun Zhang (id:1427559)
       刘吾驷 Wusi Liu (id:1359074)
       莲舟 Lianzhou (id:1427560)
       严以宁 Yining Yan (id:1414811)
       徐子豪 Nomy Xu (id:1427844)
◎演  员 王宝强 Baoqiang Wang (id:1274388)
       刘昊然 Haoran Liu (id:1336305)
       妻夫木聪 Satoshi Tsumabuki (id:1037028)
       托尼·贾 Tony Jaa (id:1004643)
       长泽雅美 Masami Nagasawa (id:1018667)
       染谷将太 Sh?ta Sometani (id:1315737)
       铃木保奈美 Honami Suzuki (id:1023872)
       浅野忠信 Tadanobu Asano (id:1036630)
       三浦友和 Tomokazu Miura (id:1008191)
       尚语贤 Yuxian Shang (id:1351584)
       肖央 Yang Xiao (id:1274979)
       张子枫 Zifeng Zhang (id:1274254)
       邱泽 Roy Chiu (id:1266497)
       张钧甯 Chun-Ning Chang (id:1257882)
       马伯骞 Victor Ma (id:1378212)
       程潇 Xiao Cheng (id:1385789)
       陈哲远 Zheyuan Chen (id:1363943)
       李明轩 Mingxuan Li (id:1414924)
       崔雨鑫 Yuxin Cui (id:1428763)
       张一白 Yibai Zhang (id:1275554)
       文咏珊 Janice Man (id:1275670)
       张熙然 Xiran Zhang (id:1425470)
       克拉拉 Clara Lee (id:1336802)
       树林伸 Shin Kibayashi (id:1451720)
       刘德华 Andy Lau (id:1054424)
       陈思诚 Sicheng Chen (id:1274763)
       平山日和 Hirayama Motokazu (id:1453319)
       奥田瑛二 Eiji Okuda (id:1033105)
       六平直政 Naomasa Musaka (id:1003638)
       酒向芳 Yoshi Sakou (id:1412012)
       秋山成勋 Yoshihiro Akiyama (id:1337494)
       桥本爱实 Manami Hashimoto (id:1316624)
       长井短 Mijika Nagai (id:1404686)
       宇治清高 Kiyotaka Uji (id:1362375)
       张国强 Guoqiang Zhang (id:1274258)
       大鹏 Chengpeng Dong (id:1324043)
       陈祉希 Zhixi Chen (id:1337247)
       林沐然 Muran Lin (id:1385666)
       田代良德 Yoshinori Tashiro (id:1459112)
       下京庆子 Keiko Shimokyo (id:1457255)
       松角洋平 Yohei Matsukado (id:1389590)
       谷手人 Tehito Tani (id:1366326)
       饭田孝男 Takao Handa (id:1457249)
       古泽裕介 Yusuke Furusawa (id:1457250)
       松浦佐知子 Sachiko Matsuura (id:1457064)
       奥居元雅 Okui Motomasa (id:1423387)
       尚玄 Shogen (id:1338325)
       尚娜 Na Shang (id:1413875)
       孙陶 Sun Tao (id:1443234)
       岳翔 Yue Xiang (id:1423457)
       栗飞 Fei Li (id:1447540)
       董萌 Meng Dong (id:1384513)
       贾理想 Lixiang Jia (id:1452019)
       郑剑锋 Kim Fung Cheng (id:1369198)
       曾茂军 Maojun Zeng (id:1397615)
       焦宏奋 Hongfen Jiao (id:1412277)
       李捷 Jie Li (id:1403835)
       郑志昊 Zhihao Zheng (id:1397531)
       刘荣 Rong Liu (id:1399271)
       李晓东 Xiaodong Li (id:1417974)
       王垂林 Chuilin Wang (id:1446629)
       史俊国 Junguo Shi (id:1453512)
       刘健 Jian Liu (id:1427698)
       陈援 Yuan Chen (id:1426849)
       钱重远 Zhongyuan Qian (id:1360740)
       傅若清 Ruoqing Fu (id:1417588)
       姜伟 Wei Jiang (id:1419662)
       马雪 Xue Ma (id:1425951)
       马峥 Zheng Ma (id:1449270)
       任冉 Ran Ren (id:1449271)
       武卫东 Weidong Wu (id:1419669)
       胡松峰 Songfeng Hu (id:1419670)
       陈思诚 Sicheng Chen (id:1274763)
       马铂伦 Bolun Ma (id:1456826)
       张海燕 Haiyan Zhang (id:1446632)
       陶鹃瑜 Juanyu Tao (id:1446115)
       庄敏华 Minhua Zhuang (id:1419671)
       李凯 Kai Li (id:1419664)
       李晔 Ye Li (id:1419666)
       许建海 Jianhai Xu (id:1384186)
       川村元气 Genki Kawamura (id:1345696)
       商丹 Dan Shang (id:1419665)
       林家亿 Jackie C.Lin (id:1445787)
       曾艳 Yan Zeng (id:1453813)
       钱永红 Yonghong Qian (id:1456349)
       王宗贤 Nathan Wang (id:1331828)
       萨吉 Sagel (id:1343967)
       杜杰 Jie Du (id:1309338)
       汤宏甲 Hongjia Tang (id:1425473)
       李淼 Miao Li (id:1327416)
       张世杰 Stanley Cheung (id:1280624)
       陈跃 Yue Chen (id:1449275)
       彭瑛朝 Penny (id:1430873)
       王钢 Gang Wang (id:1330582)
       刘晓莎 Xiaosha Liu (id:1425018)
       许明军 Mingjun Xu (id:1449272)
       伍刚 Gang Wu (id:1284478)
       赵力 Li Zhao (id:1446262)
       树林伸 Shin Kibayashi (id:1451720)

◎标  签 喜剧 / 推理 / 搞笑 / 悬疑 / 犯罪 / 2021 / 中国大陆 / 剧情

◎简  介
  继曼谷、纽约之后,东京再出大案。唐人街神探唐仁(王宝强饰)、秦风(刘昊然饰)受侦探野田昊(妻夫木聪饰)的邀请前往破案。“CRIMASTER世界侦探排行榜”中的侦探们闻讯后也齐聚东京,加入挑战,而排名第一Q的现身,让这个大案更加扑朔迷离,一场亚洲最强神探之间的较量即将爆笑展开……

◎获奖情况 (共2项)
  第7届豆瓣电影年度榜单 (2020)
  最值得期待的华语电影

  第6届豆瓣电影年度榜单 (2019)
  最值得期待的华语电影

General
Unique ID                                : 36087509574992817434956871749826621676 (0x1B263397872BCF64EA8FC99DFC2DB0EC)
Complete name                            : M.mkv
Format                                   : Matroska
Format version                           : Version 4
File size                                : 14.1 GiB
Duration                                 : 2 h 16 min
Overall bit rate                         : 14.7 Mb/s
Encoded date                             : UTC 2021-07-11 00:44:29
Writing application                      : mkvmerge v55.0.0 ('Waiting For Space') 64-bit
Writing library                          : libebml v1.4.2 + libmatroska v1.6.4

Video
ID                                       : 4
Format                                   : AVC
Format/Info                              : Advanced Video Codec
Format profile                           :
Format settings                          : CABAC / 4 Ref Frames
Format settings, CABAC                   : Yes
Format settings, Reference frames        : 4 frames
Codec ID                                 : V_MPEG4/ISO/AVC
Duration                                 : 2 h 16 min
Bit rate                                 : 13.2 Mb/s
Width                                    : 1 920 pixels
Height                                   : 804 pixels
Display aspect ratio                     : 2.40:1
Frame rate mode                          : Constant
Frame rate                               : 24.000 FPS
Color space                              : YUV
Chroma subsampling                       : 4:2:0
Bit depth                                : 8 bits
Scan type                                : Progressive
Bits/(Pixel*Frame)                       : 0.356
Stream size                              : 12.6 GiB (89%)
Writing library                          : x264 core 161 r3048+53M 0749c36 t_mod_New [(8 & 10) X86_64]
Encoding settings                        : cabac=1 / ref=4 / deblock=1:-3:-3 / analyse=0x3:0x133 / me=umh / subme=11 / psy=1 / fade_compensate=0.00 / psy_rd=1.00:0.00 / mixed_ref=1 / me_range=48 / chroma_me=1 / trellis=2 / 8x8dct=1 / cqm=0 / deadzone=21,11 / fast_pskip=0 / chroma_qp_offset=-3 / threads=24 / lookahead_threads=6 / sliced_threads=0 / nr=0 / decimate=0 / interlaced=0 / bluray_compat=0 / constrained_intra=0 / fgo=0 / bframes=11 / b_pyramid=2 / b_adapt=2 / b_bias=0 / direct=3 / weightb=1 / open_gop=0 / weightp=2 / keyint=240 / keyint_min=1 / scenecut=40 / intra_refresh=0 / rc_lookahead=72 / rc=crf / mbtree=0 / crf=17.5000 / qcomp=0.80 / qpmin=0:0:0 / qpmax=69:69:69 / qpstep=4 / vbv_maxrate=62500 / vbv_bufsize=78125 / crf_max=0.0 / nal_hrd=none / filler=0 / ip_ratio=1.40 / pb_ratio=1.30 / aq=3:0.60 / aq-sensitivity=10.00 / aq-factor=1.00:1.00:1.00 / aq2=0 / aq3=0
Language                                 : English
Default                                  : Yes
Forced                                   : No

Audio
ID                                       : 5
Format                                   : DTS
Format/Info                              : Digital Theater Systems
Codec ID                                 : A_DTS
Duration                                 : 2 h 16 min
Bit rate mode                            : Constant
Bit rate                                 : 1 510 kb/s
Channel(s)                               : 6 channels
Channel layout                           : C L R Ls Rs LFE
Sampling rate                            : 48.0 kHz
Frame rate                               : 93.750 FPS (512 SPF)
Bit depth                                : 24 bits
Compression mode                         : Lossy
Stream size                              : 1.44 GiB (10%)
Title                                    : Mandarin
Language                                 : Chinese
Default                                  : Yes
Forced                                   : No

Text #1
ID                                       : 1
Format                                   : PGS
Muxing mode                              : zlib
Codec ID                                 : S_HDMV/PGS
Codec ID/Info                            : Picture based subtitle format used on BDs/HD-DVDs
Duration                                 : 2 h 8 min
Bit rate                                 : 36.2 kb/s
Count of elements                        : 3105
Stream size                              : 33.3 MiB (0%)
Title                                    : cht
Language                                 : Chinese
Default                                  : No
Forced                                   : No

Text #2
ID                                       : 2
Format                                   : PGS
Muxing mode                              : zlib
Codec ID                                 : S_HDMV/PGS
Codec ID/Info                            : Picture based subtitle format used on BDs/HD-DVDs
Duration                                 : 2 h 8 min
Bit rate                                 : 35.4 kb/s
Count of elements                        : 3105
Stream size                              : 32.6 MiB (0%)
Title                                    : chs
Language                                 : Chinese
Default                                  : Yes
Forced                                   : No

Text #3
ID                                       : 3
Format                                   : PGS
Muxing mode                              : zlib
Codec ID                                 : S_HDMV/PGS
Codec ID/Info                            : Picture based subtitle format used on BDs/HD-DVDs
Duration                                 : 2 h 8 min
Bit rate                                 : 46.6 kb/s
Count of elements                        : 3090
Stream size                              : 42.8 MiB (0%)
Title                                    : eng
Language                                 : Chinese
Default                                  : No
Forced                                   : No

Menu
00:00:00.000                             : :绗?01 绔?
00:10:53.500                             : :绗?02 绔?
00:24:19.000                             : :绗?03 绔?
00:31:41.792                             : :绗?04 绔?
00:45:34.250                             : :绗?05 绔?
00:57:41.125                             : :绗?06 绔?
01:07:32.083                             : :绗?07 绔?
01:19:20.750                             : :绗?08 绔?
01:28:52.417                             : :绗?09 绔?
01:44:01.500                             : :绗?10 绔?
01:53:09.750                             : :绗?11 绔?
02:03:50.167                             : :绗?12 绔?




                                                                                                                                                                                                        
                                                                                                                                                                                                                                                                                                                                                                                                                                                                                                                                                                                                                                                                                                                                                                                                                                                        
0986c81390ada53d9f307d61042f8034.torrent (39.81 KB, 下载次数: 0)

回复

使用道具 举报

小黑屋|西西论坛

本网站所有资源来自网络,如无意中侵犯了您的权益,请发邮件至 [email protected],立即清除相关链接

GMT+8, 2021-7-27 10:11 , Processed in 0.133504 second(s), 17 queries .

Powered by Discuz! X3.2

© 2001-2013 Comsenz Inc.

快速回复 返回顶部 返回列表