西西论坛

 找回密码
 立即注册
搜索

足球尤物/假小子 Shes.the.Man.2006.1080p.BluRay.x264.DTS-FGT 9.56GB

[复制链接]
admin 发表于 4 天前 | 显示全部楼层 |阅读模式
足球尤物/假小子 Shes.the.Man.2006.1080p.BluRay.x264.DTS-FGT 9.56GB                                                                                                                                                                                                                                                                                                                                                                                                                                                                                                                                        -->
帖子完整标题:足球尤物/假小子 Shes.the.Man.2006.1080p.BluRay.x264.DTS-FGT 9.56GB



13b2ad57d9384831087c5ad332540ad5.jpg

[/url]

◎译  名 足球尤物/假小子/她是个男人/球爱可人儿
◎片  名 She's the Man
◎年  代 2006
◎产  地 美国,加拿大
◎类  别 喜剧 / 爱情
◎语  言 英语
◎上映日期 2006-03-17(美国)
◎豆瓣评分 7.3/10 from 59134 users
◎豆瓣链接 
◎片  长 105 分钟
◎导  演 安迪·菲克曼 Andy Fickman
◎编  剧 克尔斯滕·史密斯 Kirsten Smith
◎主  演 阿曼达·贝尼斯 Amanda Bynes
       查宁·塔图姆 Channing Tatum
       劳拉·莱姆希 Laura Ramsey
       维尼·琼斯 Vinnie Jones
       大卫·克罗斯 David Cross
       朱丽·哈基提 Julie Hagerty
       罗伯特·霍夫曼 Robert Hoffman
       亚利桑德拉·布莱肯瑞吉 Alexandra Breckenridge
       乔纳森·萨多斯基 Jonathan Sadowski
       阿曼达·克鲁 Amanda Crew
       杰西卡·卢卡斯 Jessica Lucas
       布兰顿·杰·麦克拉伦 Brandon Jay McLaren
       詹姆斯·施奈德 James Snyder
       詹姆斯·柯克 James Kirk
       艾米莉·帕金斯 Emily Perkins
       芭芭拉·科特梅尔 Barbara Kottmeier
       罗伯特·托尔蒂 Robert Torti
       琳达·博伊德 Lynda Boyd
       凯蒂·斯图亚特 Katie Stuart
       Colby Wilson
       杰弗里·巴拉德 Jeffrey Ballard
       Duncan Pattillo
       Sandra-Jessica Couturier
       约翰·派珀-弗格森 John Pyper-Ferguson
       塔尼亚·索尔尼尔 Tania Saulnier

◎标  签 青春 | 喜剧 | 美国 | 校园 | 爱情 | 美国电影 | 足球 | 搞笑

◎简  介

  维欧拉(阿曼达?贝尼斯 饰)甜美可人,笑容如同一片金色阳光。但她可不是个娇滴滴的小女生。疯狂喜爱足球的她,一直把踢球当作梦想。谁知,可恶的学校竟然取消了女子球队。维欧拉为了继续她的足球梦,乔装成她的双胞胎哥哥赛巴斯蒂去新学校报道,并作为新生加入足球队,准备在球场上战胜那些轻视女孩的男球员们。然而从小女生变成男生可不是一件容易的事,维欧拉故作野蛮的样子着实让人又佩服又好笑。
  
  在室友杜克(钱宁 ?塔图姆饰)的帮助下,维欧拉足球技术越来越出色。而不知不觉中,她竟爱上了这个和她朝夕相处的阳光大男孩。令人咋舌的是,学校的“万人迷”奥莉维娅竟然疯狂地为她着迷。一件件突发事件接踵而至,维欧拉不知所措。但她始终不变的,对足球的狂热,促使她硬着头皮也要向前走。爱情,足球,皆大欢喜还是全盘皆输?等待维欧拉,等待你我……
Video
ID                                       : 1
Format                                   : AVC
Format/Info                              : Advanced Video Codec
Format profile                           :
Format settings                          : CABAC / 4 Ref Frames
Format settings, CABAC                   : Yes
Format settings, Reference frames        : 4 frames
Codec ID                                 : V_MPEG4/ISO/AVC
Duration                                 : 1 h 45 min
Bit rate                                 : 11.5 Mb/s
Width                                    : 1 920 pixels
Height                                   : 1 080 pixels
Display aspect ratio                     : 16:9
Frame rate mode                          : Constant
Frame rate                               : 23.976 (24000/1001/189150) FPS
Color space                              : YUV
Chroma subsampling                       : 4:2:0
Bit depth                                : 8 bits
Scan type                                : Progressive
Bits/(Pixel*Frame)                       : 0.231
Stream size                              : 8.45 GiB (88%)
Writing library                          : x264 core 148 r2748 97eaef2
Encoding settings                        : cabac=1 / ref=4 / deblock=1:-2:-2 / analyse=0x3:0x113 / me=umh / subme=9 / psy=1 / psy_rd=1.00:0.15 / mixed_ref=1 / me_range=16 / chroma_me=1 / trellis=2 / 8x8dct=1 / cqm=0 / deadzone=21,11 / fast_pskip=1 / chroma_qp_offset=-3 / threads=72 / lookahead_threads=3 / sliced_threads=0 / nr=0 / decimate=1 / interlaced=0 / bluray_compat=0 / constrained_intra=0 / bframes=3 / b_pyramid=2 / b_adapt=1 / b_bias=0 / direct=3 / weightb=1 / open_gop=0 / weightp=2 / keyint=250 / keyint_min=25 / scenecut=40 / intra_refresh=0 / rc_lookahead=50 / rc=2pass / mbtree=1 / bitrate=11500 / ratetol=1.0 / qcomp=0.60 / qpmin=0 / qpmax=69 / qpstep=4 / cplxblur=20.0 / qblur=0.5 / vbv_maxrate=31250 / vbv_bufsize=31250 / nal_hrd=none / filler=0 / ip_ratio=1.40 / aq=1:1.00
Language                                 : English
Default                                  : Yes
Forced                                   : No

Audio
ID                                       : 2
ID in the original source medium         : 4352 (0x1100)
Format                                   : DTS
Format/Info                              : Digital Theater Systems
Codec ID                                 : A_DTS
Duration                                 : 1 h 45 min
Bit rate mode                            : Constant
Bit rate                                 : 1 509 kb/s
Channel(s)                               : 6 channels
Channel layout                           : C L R Ls Rs LFE
Sampling rate                            : 48.0 kHz
Frame rate                               : 93.750 FPS (512 SPF)
Bit depth                                : 24 bits
Compression mode                         : Lossy
Stream size                              : 1.11 GiB (12%)
Title                                    : Surround 5.1
Language                                 : English
Default                                  : No
Forced                                   : No
Original source medium                   : Blu-ray

Text
ID                                       : 3
Format                                   : UTF-8
Codec ID                                 : S_TEXT/UTF8
Codec ID/Info                            : UTF-8 Plain Text
Duration                                 : 1 h 36 min
Bit rate                                 : 67 b/s
Count of elements                        : 1589
Stream size                              : 47.8 KiB (0%)
Language                                 : English
Default                                  : Yes
Forced                                   : No

Menu
00:00:00.000                             : Chapter 01
00:05:50.933                             : Chapter 02
00:12:14.108                             : Chapter 03
00:16:57.599                             : Chapter 04
00:19:50.272                             : Chapter 05
00:23:19.231                             : Chapter 06
00:28:29.874                             : Chapter 07
00:32:33.534                             : Chapter 08
00:38:32.351                             : Chapter 09
00:44:29.792                             : Chapter 10
00:51:38.845                             : Chapter 11
00:56:14.079                             : Chapter 12
01:02:44.218                             : Chapter 13
01:09:15.860                             : Chapter 14
01:13:45.379                             : Chapter 15
01:18:22.030                             : Chapter 16
01:25:15.151                             : Chapter 17
01:31:18.848                             : Chapter 18
01:34:48.683                             : Chapter 19
01:40:29.273                             : Chapter 20

adb2e8797c1f87acd2d9dca9e11ba459.png

[/url]8bb09b628f7502daf110dd3f4283c208.png

[/url]941404f4b270f0b42c6f7876de41fadf.png

[/url]



                                                                                                                                                                                                        
                                                                                                                                                                                                                                                                                                                                                                                                                                                                                                                                                                                                                                                                                                                                                                                                                                                        
3dc3e31edd40bb5d061f12b80a819c6c.torrent (48.42 KB, 下载次数: 0)

回复

使用道具 举报

小黑屋|西西论坛

本网站所有资源来自网络,如无意中侵犯了您的权益,请发邮件至 [email protected],立即清除相关链接

GMT+8, 2021-6-15 01:55 , Processed in 0.066395 second(s), 17 queries .

Powered by Discuz! X3.2

© 2001-2013 Comsenz Inc.

快速回复 返回顶部 返回列表