西西论坛

 找回密码
 立即注册
搜索

皮革男孩 The.Leather.Boys.1964.1080p.BluRay.x264.DTS-FGT 8.89GB

[复制链接]
admin 发表于 5 天前 | 显示全部楼层 |阅读模式
皮革男孩 The.Leather.Boys.1964.1080p.BluRay.x264.DTS-FGT 8.89GB                                                                                                                                                                                                                                                                                                                                                                                                                                                                                                                                        -->
帖子完整标题:皮革男孩 The.Leather.Boys.1964.1080p.BluRay.x264.DTS-FGT 8.89GB



ca217c7c5a8d93b78f7d03f58840e18f.jpg

[/url]

◎译  名 皮革男孩
◎片  名 The Leather Boys
◎年  代 1964
◎产  地 英国
◎类  别 剧情 / 爱情
◎语  言 英语
◎上映日期 
◎豆瓣评分 /10 from 0 users
◎豆瓣链接 
◎片  长 108 分钟
◎导  演 西德尼·J·弗里尔 Sidney J. Furie
◎主  演 丽塔·塔欣厄姆 Rita Tushingham
       Colin Campbell
       杜德里·沙顿 Dudley Sutton
       Oliver MacGreevy
       贝蒂·马斯登 Betty Marsden
       丹迪·尼科尔斯 Dandy Nichols
       Tracy Rogers
       洛克伍德·韦斯特 Lockwood West
       Avice Landone
       Gladys Henson
       Joyce Hemson
       杰弗里·邓恩 Geoffrey Dunn
       James Chase
       约翰尼·布里格斯 Johnny Briggs

◎标  签 英国电影 | 英国 | 机车 | 1960s | 青年文化 | Sidney_J._Furie | caferacer | 美国电影

◎简  介

  暂无相关剧情介绍
Video
ID                                       : 1
Format                                   : AVC
Format/Info                              : Advanced Video Codec
Format profile                           :
Format settings                          : CABAC / 4 Ref Frames
Format settings, CABAC                   : Yes
Format settings, Reference frames        : 4 frames
Codec ID                                 : V_MPEG4/ISO/AVC
Duration                                 : 1 h 47 min
Bit rate                                 : 11.5 Mb/s
Width                                    : 1 920 pixels
Height                                   : 804 pixels
Display aspect ratio                     : 2.40:1
Frame rate mode                          : Constant
Frame rate                               : 23.976 (24000/1001/189150) FPS
Color space                              : YUV
Chroma subsampling                       : 4:2:0
Bit depth                                : 8 bits
Scan type                                : Progressive
Bits/(Pixel*Frame)                       : 0.311
Stream size                              : 8.61 GiB (97%)
Writing library                          : x264 core 148 r2795M aaa9aa8
Encoding settings                        : cabac=1 / ref=4 / deblock=1:-2:-2 / analyse=0x3:0x113 / me=umh / subme=9 / psy=1 / psy_rd=1.00:0.15 / mixed_ref=1 / me_range=16 / chroma_me=1 / trellis=2 / 8x8dct=1 / cqm=0 / deadzone=21,11 / fast_pskip=1 / chroma_qp_offset=-3 / threads=48 / lookahead_threads=3 / sliced_threads=0 / nr=0 / decimate=1 / interlaced=0 / bluray_compat=0 / constrained_intra=0 / bframes=3 / b_pyramid=2 / b_adapt=1 / b_bias=0 / direct=3 / weightb=1 / open_gop=0 / weightp=2 / keyint=250 / keyint_min=25 / scenecut=40 / intra_refresh=0 / rc_lookahead=50 / rc=2pass / mbtree=1 / bitrate=11500 / ratetol=1.0 / qcomp=0.60 / qpmin=0 / qpmax=69 / qpstep=4 / cplxblur=20.0 / qblur=0.5 / vbv_maxrate=31250 / vbv_bufsize=31250 / nal_hrd=none / filler=0 / ip_ratio=1.40 / aq=1:1.00
Language                                 : English
Default                                  : Yes
Forced                                   : No

Audio
ID                                       : 2
ID in the original source medium         : 4352 (0x1100)
Format                                   : DTS
Format/Info                              : Digital Theater Systems
Codec ID                                 : A_DTS
Duration                                 : 1 h 47 min
Bit rate mode                            : Constant
Bit rate                                 : 384 kb/s
Channel(s)                               : 1 channel
Channel layout                           : C
Sampling rate                            : 48.0 kHz
Frame rate                               : 93.750 FPS (512 SPF)
Bit depth                                : 16 bits
Compression mode                         : Lossy
Stream size                              : 294 MiB (3%)
Title                                    : Mono
Language                                 : English
Default                                  : No
Forced                                   : No
Original source medium                   : Blu-ray

Text
ID                                       : 3
Format                                   : UTF-8
Codec ID                                 : S_TEXT/UTF8
Codec ID/Info                            : UTF-8 Plain Text
Duration                                 : 1 h 44 min
Bit rate                                 : 82 b/s
Count of elements                        : 2293
Stream size                              : 62.8 KiB (0%)
Language                                 : English
Default                                  : Yes
Forced                                   : No

Menu
00:00:00.000                             : Chapter 01
00:17:05.441                             : Chapter 02
00:36:14.630                             : Chapter 03
00:52:30.981                             : Chapter 04
01:08:47.957                             : Chapter 05
01:27:06.804                             : Chapter 06

d8032da2390537ec4b36598c3e5d00c9.png

[/url]a2429a747101ebd6f6832d622e0b27f2.png

[/url]8db43d381c4dcc5f08a0eaf52b105ca2.png

[/url]



                                                                                                                                                                                                        
                                                                                                                                                                                                                                                                                                                                                                                                                                                                                                                                                                                                                                                                                                                                                                                                                                                        
781c6612864431c16a66d1875943ec9f.torrent (45.1 KB, 下载次数: 0)

回复

使用道具 举报

小黑屋|西西论坛

本网站所有资源来自网络,如无意中侵犯了您的权益,请发邮件至 [email protected],立即清除相关链接

GMT+8, 2021-6-15 01:41 , Processed in 0.063870 second(s), 17 queries .

Powered by Discuz! X3.2

© 2001-2013 Comsenz Inc.

快速回复 返回顶部 返回列表