西西论坛

 找回密码
 立即注册
搜索

一夜/夜巡战警 Paris.by.Night.2012.FRENCH.1080p.BluRay.x264.DTS-VHD 10.49GB

[复制链接]
admin 发表于 5 天前 | 显示全部楼层 |阅读模式
一夜/夜巡战警 Paris.by.Night.2012.FRENCH.1080p.BluRay.x264.DTS-VHD 10.49GB                                                                                                                                                                                                                                                                                                                                                                                                                                                                                                                                        -->
帖子完整标题:一夜/夜巡战警 Paris.by.Night.2012.FRENCH.1080p.BluRay.x264.DTS-VHD 10.49GB



efd43a05050b6c53682d37833c126482.jpg

[/url]

◎译  名 一夜/夜巡战警
◎片  名 Une nuit
◎年  代 2012
◎产  地 法国
◎类  别 剧情 / 犯罪
◎语  言 法语
◎上映日期 2012-01-04
◎豆瓣评分 /10 from 0 users
◎豆瓣链接 
◎片  长 110分钟
◎导  演 卢卡斯·贝尔沃克斯 Lucas Belvaux
◎编  剧 迪戴尔·德科恩 Didier Decoin / 西蒙·米凯尔 Simon Micha?l
◎主  演 伊万·阿达勒 Yvan Attal
       纳塔莉·贝伊 Nathalie Baye
       索菲·昆汀 Sophie Quinton
       罗什迪·泽姆 Roschdy Zem
       让-皮埃尔·马丹 Jean-Pierre Martins

◎标  签 法国 | 社会 | 2012 | 警匪 | 剧情 | 菲利普·勒费弗尔 | 电影 | 法国电影

◎简  介

  巴黎,特警队长西蒙.维斯,如同每个晚上一样,开始他的夜间娱乐场所的例行巡查。这是他的工作。一个夜晚,但却与别夜晚不同......很快,维斯明白了有人对他设了陷阱。被警察的警察和流氓两者折磨,维斯要自己保护自己,对抗警察,生意人和罪犯。
Video
ID                                       : 4
Format                                   : AVC
Format/Info                              : Advanced Video Codec
Format profile                           :
Format settings                          : CABAC / 5 Ref Frames
Format settings, CABAC                   : Yes
Format settings, Reference frames        : 5 frames
Codec ID                                 : V_MPEG4/ISO/AVC
Duration                                 : 1 h 36 min
Bit rate                                 : 14.0 Mb/s
Width                                    : 1 920 pixels
Height                                   : 816 pixels
Display aspect ratio                     : 2.35:1
Frame rate mode                          : Constant
Frame rate                               : 25.000 FPS
Color space                              : YUV
Chroma subsampling                       : 4:2:0
Bit depth                                : 8 bits
Scan type                                : Progressive
Bits/(Pixel*Frame)                       : 0.359
Stream size                              : 9.47 GiB (90%)
Writing library                          : x264 core 146 r2538kMod 121396c
Encoding settings                        : cabac=1 / ref=5 / deblock=1:-3:-3 / analyse=0x3:0x133 / me=umh / subme=10 / psy=1 / fade_compensate=0.00 / psy_rd=1.10:0.00 / mixed_ref=1 / me_range=24 / chroma_me=1 / trellis=2 / 8x8dct=1 / cqm=0 / deadzone=21,11 / fast_pskip=0 / chroma_qp_offset=-2 / threads=12 / lookahead_threads=2 / sliced_threads=0 / nr=0 / decimate=0 / interlaced=0 / bluray_compat=0 / constrained_intra=0 / fgo=0 / bframes=7 / b_pyramid=2 / b_adapt=2 / b_bias=0 / direct=3 / weightb=1 / open_gop=0 / weightp=2 / keyint=250 / keyint_min=25 / scenecut=40 / intra_refresh=0 / rc_lookahead=60 / rc=crf / mbtree=0 / crf=17.0000 / qcomp=0.70 / qpmin=0 / qpmax=69 / qpstep=4 / vbv_maxrate=62500 / vbv_bufsize=78125 / crf_max=0.0 / nal_hrd=none / filler=0 / ip_ratio=1.30 / pb_ratio=1.20 / aq=3:0.80
Language                                 : English
Default                                  : Yes
Forced                                   : No
Color range                              : Limited
Matrix coefficients                      : BT.709

Audio
ID                                       : 1
Format                                   : DTS
Format/Info                              : Digital Theater Systems
Codec ID                                 : A_DTS
Duration                                 : 1 h 36 min
Bit rate mode                            : Constant
Bit rate                                 : 1 509 kb/s
Channel(s)                               : 6 channels
Channel layout                           : C L R Ls Rs LFE
Sampling rate                            : 48.0 kHz
Frame rate                               : 93.750 FPS (512 SPF)
Bit depth                                : 24 bits
Compression mode                         : Lossy
Stream size                              : 1.02 GiB (10%)
Language                                 : French
Default                                  : Yes
Forced                                   : No

Text #1
ID                                       : 2
Format                                   : UTF-8
Codec ID                                 : S_TEXT/UTF8
Codec ID/Info                            : UTF-8 Plain Text
Duration                                 : 1 h 29 min
Bit rate                                 : 37 b/s
Count of elements                        : 595
Stream size                              : 25.0 KiB (0%)
Title                                    : English SRT
Language                                 : English
Default                                  : Yes
Forced                                   : No

Text #2
ID                                       : 3
Format                                   : UTF-8
Codec ID                                 : S_TEXT/UTF8
Codec ID/Info                            : UTF-8 Plain Text
Duration                                 : 1 h 32 min
Bit rate                                 : 36 b/s
Count of elements                        : 596
Stream size                              : 24.8 KiB (0%)
Title                                    : Norwegian SRT
Language                                 : Norwegian
Default                                  : No
Forced                                   : No

Menu
00:00:00.000                             : en:00:00:00.000
00:05:39.800                             : en:00:05:39.800
00:12:57.280                             : en:00:12:57.280
00:25:17.960                             : en:00:25:17.960
00:37:31.440                             : en:00:37:31.440
00:48:15.200                             : en:00:48:15.200
00:58:38.480                             : en:00:58:38.480
01:13:42.920                             : en:01:13:42.920
01:20:22.280                             : en:01:20:22.280
01:33:03.200                             : en:01:33:03.200

03319a1c2deb094f1c86faca32616226.png

[/url]e788ed635a9b5891034d314058133fbe.png

[/url]82dad7cdd98c48676f9c5cc26057b6a3.png

[/url]



                                                                                                                                                                                                        
                                                                                                                                                                                                                                                                                                                                                                                                                                                                                                                                                                                                                                                                                                                                                                                                                                                        
e55f0f379d71590de5dfd14d4fea6b35.torrent (53.05 KB, 下载次数: 0)

回复

使用道具 举报

小黑屋|西西论坛

本网站所有资源来自网络,如无意中侵犯了您的权益,请发邮件至 [email protected],立即清除相关链接

GMT+8, 2021-6-15 01:16 , Processed in 0.067741 second(s), 17 queries .

Powered by Discuz! X3.2

© 2001-2013 Comsenz Inc.

快速回复 返回顶部 返回列表