西西论坛

 找回密码
 立即注册
搜索

探长拉瓦丁 Inspecteur.Lavardin.1986.FRENCH.1080p.BluRay.x264.FLAC.2.0-Candial 9. ...

[复制链接]
admin 发表于 7 天前 | 显示全部楼层 |阅读模式
探长拉瓦丁 Inspecteur.Lavardin.1986.FRENCH.1080p.BluRay.x264.FLAC.2.0-Candial 9.18GB                                                                                                                                                                                                                                                                                                                                                                                                                                                                                                                                        -->
帖子完整标题:探长拉瓦丁 Inspecteur.Lavardin.1986.FRENCH.1080p.BluRay.x264.FLAC.2.0-Candial 9.18GB



a1afdf236464f901823a22f7a60fee7e.jpg

[/url]

◎译  名 探长拉瓦丁
◎片  名 Inspecteur Lavardin
◎年  代 1986
◎产  地 法国,瑞士
◎类  别 剧情 / 悬疑 / 犯罪
◎语  言 法语
◎上映日期 1986-03-12
◎豆瓣评分 6.4/10 from 84 users
◎豆瓣链接 
◎片  长 100 分钟
◎导  演 克洛德·夏布洛尔 Claude Chabrol
◎编  剧 克洛德·夏布洛尔 Claude Chabrol
◎主  演 让·普瓦雷 Jean Poiret
       让-克洛德·布里亚利 Jean-Claude Brialy
       贝纳德特·拉封 Bernadette Lafont
       让-吕克·比多 Jean-Luc Bideau
       雅克·达克米纳 Jacques Dacqmine

◎标  签 Claude_Chabrol | 法国 | 法国电影 | 新浪潮 | 1980s | 犯罪 | 1986 | 夏布洛尔

◎简  介

  由法国新浪潮电影的重要人物克劳德·夏布洛(Claude Chabrol)执导。希区柯克是他仰慕的一位导演,作品亦受其影响。
Video
ID                                       : 1
Format                                   : AVC
Format/Info                              : Advanced Video Codec
Format profile                           :
Format settings                          : CABAC / 4 Ref Frames
Format settings, CABAC                   : Yes
Format settings, Reference frames        : 4 frames
Codec ID                                 : V_MPEG4/ISO/AVC
Duration                                 : 1 h 40 min
Bit rate                                 : 12.2 Mb/s
Width                                    : 1 804 pixels
Height                                   : 1 080 pixels
Display aspect ratio                     : 5:3
Frame rate mode                          : Constant
Frame rate                               : 23.976 (24000/1001/189150) FPS
Color space                              : YUV
Chroma subsampling                       : 4:2:0
Bit depth                                : 8 bits
Scan type                                : Progressive
Bits/(Pixel*Frame)                       : 0.260
Stream size                              : 8.53 GiB (93%)
Writing library                          : x264 core 142 r2431 ac76440
Encoding settings                        : cabac=1 / ref=4 / deblock=1:-3:-3 / analyse=0x3:0x133 / me=umh / subme=9 / psy=1 / psy_rd=1.00:0.00 / mixed_ref=1 / me_range=32 / chroma_me=1 / trellis=2 / 8x8dct=1 / cqm=0 / deadzone=21,11 / fast_pskip=0 / chroma_qp_offset=-2 / threads=6 / lookahead_threads=1 / sliced_threads=0 / nr=0 / decimate=1 / interlaced=0 / bluray_compat=0 / constrained_intra=0 / bframes=7 / b_pyramid=2 / b_adapt=2 / b_bias=0 / direct=3 / weightb=1 / open_gop=0 / weightp=2 / keyint=240 / keyint_min=23 / scenecut=40 / intra_refresh=0 / rc_lookahead=40 / rc=2pass / mbtree=1 / bitrate=12156 / ratetol=1.0 / qcomp=0.60 / qpmin=0 / qpmax=69 / qpstep=4 / cplxblur=20.0 / qblur=0.5 / vbv_maxrate=62500 / vbv_bufsize=78125 / nal_hrd=none / filler=0 / ip_ratio=1.40 / aq=1:1.00
Default                                  : Yes
Forced                                   : No

Audio #1
ID                                       : 2
Format                                   : FLAC
Format/Info                              : Free Lossless Audio Codec
Codec ID                                 : A_FLAC
Duration                                 : 1 h 40 min
Bit rate mode                            : Variable
Bit rate                                 : 757 kb/s
Channel(s)                               : 2 channels
Channel layout                           : L R
Sampling rate                            : 48.0 kHz
Frame rate                               : 11.719 FPS (4096 SPF)
Bit depth                                : 24 bits
Compression mode                         : Lossless
Stream size                              : 544 MiB (6%)
Writing library                          : libFLAC 1.3.0 (UTC 2013-05-26)
Language                                 : French
Default                                  : Yes
Forced                                   : No

Audio #2
ID                                       : 3
Format                                   : AAC LC
Format/Info                              : Advanced Audio Codec Low Complexity
Codec ID                                 : A_AAC-2
Duration                                 : 1 h 40 min
Bit rate                                 : 160 kb/s
Channel(s)                               : 2 channels
Channel layout                           : L R
Sampling rate                            : 48.0 kHz
Frame rate                               : 46.875 FPS (1024 SPF)
Compression mode                         : Lossy
Stream size                              : 115 MiB (1%)
Title                                    : Audio Commentary by Wade Major and Andy Klein
Language                                 : English
Default                                  : No
Forced                                   : No

Text
ID                                       : 4
Format                                   : UTF-8
Codec ID                                 : S_TEXT/UTF8
Codec ID/Info                            : UTF-8 Plain Text
Duration                                 : 1 h 39 min
Bit rate                                 : 37 b/s
Count of elements                        : 1154
Stream size                              : 27.4 KiB (0%)
Language                                 : English
Default                                  : Yes
Forced                                   : No

Menu
00:00:00.000                             : :Chapter 01
00:09:58.264                             : :Chapter 02
00:20:29.811                             : :Chapter 03
00:30:10.350                             : :Chapter 04
00:38:33.394                             : :Chapter 05
00:48:11.805                             : :Chapter 06
00:58:06.191                             : :Chapter 07
01:08:17.009                             : :Chapter 08
01:18:10.602                             : :Chapter 09
01:28:42.317                             : :Chapter 10
01:40:29.356                             : :Chapter 11

758b2760e1a7b933b7de22976bb0f7e3.png

[/url]2452c96e5cbf7d8b49becd6084e83d5a.png

[/url]0e6fd680742ac7c17bac8c8bd783aa2c.png

[/url]



                                                                                                                                                                                                        
                                                                                                                                                                                                                                                                                                                                                                                                                                                                                                                                                                                                                                                                                                                                                                                                                                                        
46521191d88959cb5503c15831ec7473.torrent (46.57 KB, 下载次数: 0)

回复

使用道具 举报

小黑屋|西西论坛

本网站所有资源来自网络,如无意中侵犯了您的权益,请发邮件至 [email protected],立即清除相关链接

GMT+8, 2021-6-15 02:50 , Processed in 0.063816 second(s), 17 queries .

Powered by Discuz! X3.2

© 2001-2013 Comsenz Inc.

快速回复 返回顶部 返回列表