西西论坛

 找回密码
 立即注册
搜索

人造怪物 Monsters.of.Man.2020.1080p.BluRay.x264.DTS-FGT 11.98GB

[复制链接]
admin 发表于 7 天前 | 显示全部楼层 |阅读模式
人造怪物 Monsters.of.Man.2020.1080p.BluRay.x264.DTS-FGT 11.98GB                                                                                                                                                                                                                                                                                                                                                                                                                                                                                                                                        -->
帖子完整标题:人造怪物 Monsters.of.Man.2020.1080p.BluRay.x264.DTS-FGT 11.98GB



7dde6e45bedef1899d01ea6926366eff.jpg

[/url]

◎译  名 人造怪物
◎片  名 Monsters of Man
◎年  代 2020
◎产  地 澳大利亚
◎类  别 科幻
◎语  言 英语
◎上映日期 2020-12-08(美国)
◎豆瓣评分 5.8/10 from 2340 users
◎豆瓣链接 
◎片  长 131分钟
◎导  演 马克·托亚 Mark Toia
◎编  剧 马克·托亚 Mark Toia
◎主  演 尼尔·麦克唐纳 Neal McDonough
       乔斯·罗赛特 Jose Rosete
       凯利·陈 Kayli Tran
       杰西卡·布莱克莫尔 Jessica Blackmore
       大卫·萨马廷 David Samartin
       泰勒·利·爱德华兹 Taylor Leigh Edwards
       大卫·哈弗蒂 David Haverty
       保罗·哈帕尼米 Paul Haapaniemi
       布雷特·特雷诺 Brett Tutor
       康拉德·K·普拉特 Conrad K. Pratt
       乔蒂·杜伦纳 Jordy Tulleners
       塔蒂安娜·马尔贾诺维奇 Tatjana Marjanovic

◎标  签 科幻 | 美国 | 动作 | 2020 | 惊悚 | 美国电影 | 犯罪 | 恐怖

◎简  介

  一家机器人公司与一名腐败的中情局特工联手,试图为自己定位,以赢得一份利润丰厚的军事合同。他们非法空投了4个机器人原型到臭名昭著的老挝、柬埔寨和泰国之间的金三角地带,对毫无戒心的毒枭进行现场实地测试,这是全世界永远不会错过的。其中一个机器人在空投中受损,机器人技术团队在它变得自知之明时失去了对它的控制,成为一个势不可挡的杀人机器。
Video
ID                                       : 1
Format                                   : AVC
Format/Info                              : Advanced Video Codec
Format profile                           :
Format settings                          : CABAC / 4 Ref Frames
Format settings, CABAC                   : Yes
Format settings, Reference frames        : 4 frames
Codec ID                                 : V_MPEG4/ISO/AVC
Duration                                 : 2 h 11 min
Bit rate                                 : 11.5 Mb/s
Width                                    : 1 920 pixels
Height                                   : 800 pixels
Display aspect ratio                     : 2.40:1
Frame rate mode                          : Constant
Frame rate                               : 24.000 FPS
Color space                              : YUV
Chroma subsampling                       : 4:2:0
Bit depth                                : 8 bits
Scan type                                : Progressive
Bits/(Pixel*Frame)                       : 0.312
Stream size                              : 10.6 GiB (88%)
Writing library                          : x264 core 148 r2748 97eaef2
Encoding settings                        : cabac=1 / ref=4 / deblock=1:-2:-2 / analyse=0x3:0x113 / me=umh / subme=9 / psy=1 / psy_rd=1.00:0.15 / mixed_ref=1 / me_range=16 / chroma_me=1 / trellis=2 / 8x8dct=1 / cqm=0 / deadzone=21,11 / fast_pskip=1 / chroma_qp_offset=-3 / threads=72 / lookahead_threads=3 / sliced_threads=0 / nr=0 / decimate=1 / interlaced=0 / bluray_compat=0 / constrained_intra=0 / bframes=3 / b_pyramid=2 / b_adapt=1 / b_bias=0 / direct=3 / weightb=1 / open_gop=0 / weightp=2 / keyint=250 / keyint_min=25 / scenecut=40 / intra_refresh=0 / rc_lookahead=50 / rc=2pass / mbtree=1 / bitrate=11500 / ratetol=1.0 / qcomp=0.60 / qpmin=0 / qpmax=69 / qpstep=4 / cplxblur=20.0 / qblur=0.5 / vbv_maxrate=31250 / vbv_bufsize=31250 / nal_hrd=none / filler=0 / ip_ratio=1.40 / aq=1:1.00
Language                                 : English
Default                                  : Yes
Forced                                   : No

Audio
ID                                       : 2
ID in the original source medium         : 4353 (0x1101)
Format                                   : DTS
Format/Info                              : Digital Theater Systems
Codec ID                                 : A_DTS
Duration                                 : 2 h 11 min
Bit rate mode                            : Constant
Bit rate                                 : 1 509 kb/s
Channel(s)                               : 6 channels
Channel layout                           : C L R Ls Rs LFE
Sampling rate                            : 48.0 kHz
Frame rate                               : 93.750 FPS (512 SPF)
Bit depth                                : 24 bits
Compression mode                         : Lossy
Stream size                              : 1.39 GiB (12%)
Title                                    : DTS 5.1
Language                                 : English
Default                                  : No
Forced                                   : No
Original source medium                   : Blu-ray

Text #1
ID                                       : 3
Format                                   : UTF-8
Codec ID                                 : S_TEXT/UTF8
Codec ID/Info                            : UTF-8 Plain Text
Duration                                 : 1 h 51 min
Bit rate                                 : 1 b/s
Count of elements                        : 50
Stream size                              : 1.04 KiB (0%)
Title                                    : FORCED
Language                                 : English
Default                                  : Yes
Forced                                   : Yes

Text #2
ID                                       : 4
Format                                   : UTF-8
Codec ID                                 : S_TEXT/UTF8
Codec ID/Info                            : UTF-8 Plain Text
Duration                                 : 2 h 4 min
Bit rate                                 : 43 b/s
Count of elements                        : 1602
Stream size                              : 39.8 KiB (0%)
Language                                 : English
Default                                  : No
Forced                                   : No

Menu
00:00:00.000                             : Chapter 01
00:12:10.083                             : Chapter 02
00:21:34.375                             : Chapter 03
00:32:43.291                             : Chapter 04
00:54:11.041                             : Chapter 05
01:07:39.625                             : Chapter 06
01:18:08.125                             : Chapter 07
01:30:46.791                             : Chapter 08
01:39:52.208                             : Chapter 09
01:51:40.000                             : Chapter 10
02:03:41.458                             : Chapter 11

c4b92d969258b1f9b68eb39e160362ff.png

[/url]56cde430615f8d418cb5bd660488c5dc.png

[/url]ed1d6c1ec3a23c0c76979ff984d7dc27.png

[/url]



                                                                                                                                                                                                        
                                                                                                                                                                                                                                                                                                                                                                                                                                                                                                                                                                                                                                                                                                                                                                                                                                                        
373f3c64027c99bfdaf4f81b499ed49a.torrent (60.53 KB, 下载次数: 0)

回复

使用道具 举报

小黑屋|西西论坛

本网站所有资源来自网络,如无意中侵犯了您的权益,请发邮件至 [email protected],立即清除相关链接

GMT+8, 2021-6-15 01:46 , Processed in 0.065572 second(s), 17 queries .

Powered by Discuz! X3.2

© 2001-2013 Comsenz Inc.

快速回复 返回顶部 返回列表