西西论坛

 找回密码
 立即注册
搜索

座头市 Zatoichi.1989.JAPANESE.1080p.BluRay.x264.AAC2.0-HANDJOB 8.04GB

[复制链接]
admin 发表于 2021-5-15 17:13:01 | 显示全部楼层 |阅读模式
座头市 Zatoichi.1989.JAPANESE.1080p.BluRay.x264.AAC2.0-HANDJOB 8.04GB                                                                                                                                                                                                                                                                                                                                                                                                                                                                                                                                        -->
帖子完整标题:座头市 Zatoichi.1989.JAPANESE.1080p.BluRay.x264.AAC2.0-HANDJOB 8.04GB



f21fcc10453e0f554512f4666639ec41.jpg

[/url]

◎译  名 座头市/Darkness Is His Ally/Zat?ichi
◎片  名 座頭市
◎年  代 1989
◎产  地 日本
◎类  别 剧情 / 动作
◎语  言 日语
◎上映日期 1989-02-04(日本)
◎IMDb评分  7.3/10 from 1499 users
◎IMDb链接  
◎豆瓣评分 8.2/10 from 1168 users
◎豆瓣链接 
◎片  长 116分钟
◎导  演 胜新太郎 Shintar? Katsu
◎编  剧 胜新太郎 Shintar? Katsu / 中村努 Tsutomu Nakamura / 中冈京平 Kyohei Nakaoka / 子母泽宽 Kan Shimosawa
◎主  演 胜新太郎 Shintar? Katsu
       樋口可南子 Kanako Higuchi
       阵内孝则 Takanori Jinnai
       内田裕也 Y?ya Uchida
       草野丰实 Toyomi Kusano
       片冈鹤太郎 Tsurutar? Kataoka
       中山美穗 Miho Nakayama
       绪形拳 Ken Ogata
       三木纪平 Norihei Miki
       伴大介 Daisuke Ban
       江幡高志 Takashi Ebata
       原田游人 Eugene Harada
       长谷川弘 Hiroshi Hasegawa
       堀田真三 Shinz? Hotta
       蟹江敬三 Keiz? Kani'e
       加藤治 Osamu Kat?
       川谷拓三 Takuzo Kawatani
       久保明 Akira Kubo
       Ryuutar? Gan
       山中乔 Joe Yamanaka
       立木文彦 Fumihiko Tachiki
       大村千吉 Senkichi ?mura
       佐藤允 Makoto Sat?
       志村知幸 Tomoyuki Shimura
       水森コウ太 K?ta Mizumori
       田村正毅 Masaki Tamura
       上田耕一 K?ichi Ueda
       堺左千夫 Sachio Sakai
       安冈力也 Rikiya Yasuoka
       梅津荣 Sakae Umezu
       多多良纯 Jun Tatara
       高山千草 Chigusa Takayama

◎标  签 日本 | 胜新太郎 | 日本电影 | 座头市 | 武士 | 北野武 | 动作 | 暴力美学

◎简  介

  盲剑客座头市来到一座被黑帮赌场控制的小镇,他遇到了两名艺伎,她们的父母被残忍杀害,她们决定进行复仇,在小镇上掀起一场风波。座头市答应帮助她们,为正义而奋战。服部源之助也是一名高强的剑客,一直被他的痛苦过去所折磨,他也怀着刺杀任务来到小镇。小镇陷入暴雨将至的紧张气氛中……
Video
ID                                       : 1
Format                                   : AVC
Format/Info                              : Advanced Video Codec
Format profile                           :
Format settings                          : CABAC / 4 Ref Frames
Format settings, CABAC                   : Yes
Format settings, Reference frames        : 4 frames
Codec ID                                 : V_MPEG4/ISO/AVC
Duration                                 : 1 h 56 min
Bit rate                                 : 9 565 kb/s
Width                                    : 1 920 pixels
Height                                   : 1 080 pixels
Display aspect ratio                     : 16:9
Frame rate mode                          : Constant
Frame rate                               : 23.976 (24000/1001/189150) FPS
Color space                              : YUV
Chroma subsampling                       : 4:2:0
Bit depth                                : 8 bits
Scan type                                : Progressive
Bits/(Pixel*Frame)                       : 0.192
Stream size                              : 7.78 GiB (97%)
Writing library                          : x264 core 155 r2901 7d0ff22
Encoding settings                        : cabac=1 / ref=4 / deblock=1:-3:-3 / analyse=0x3:0x133 / me=umh / subme=10 / psy=1 / psy_rd=1.00:0.00 / mixed_ref=1 / me_range=32 / chroma_me=1 / trellis=2 / 8x8dct=1 / cqm=0 / deadzone=21,11 / fast_pskip=0 / chroma_qp_offset=-2 / threads=18 / lookahead_threads=4 / sliced_threads=0 / nr=0 / decimate=0 / interlaced=0 / bluray_compat=0 / constrained_intra=0 / bframes=16 / b_pyramid=2 / b_adapt=2 / b_bias=0 / direct=3 / weightb=1 / open_gop=0 / weightp=1 / keyint=240 / keyint_min=24 / scenecut=40 / intra_refresh=0 / rc_lookahead=60 / rc=crf / mbtree=0 / crf=23.0 / qcomp=0.60 / qpmin=0 / qpmax=69 / qpstep=4 / vbv_maxrate=62500 / vbv_bufsize=78125 / crf_max=0.0 / nal_hrd=none / filler=0 / ip_ratio=1.40 / pb_ratio=1.30 / aq=2:1.00
Default                                  : Yes
Forced                                   : No
Color range                              : Limited
Color primaries                          : BT.709
Transfer characteristics                 : BT.709
Matrix coefficients                      : BT.709

Audio
ID                                       : 2
Format                                   : AAC LC
Format/Info                              : Advanced Audio Codec Low Complexity
Codec ID                                 : A_AAC-2
Duration                                 : 1 h 56 min
Bit rate                                 : 320 kb/s
Channel(s)                               : 2 channels
Channel layout                           : L R
Sampling rate                            : 48.0 kHz
Frame rate                               : 46.875 FPS (1024 SPF)
Compression mode                         : Lossy
Delay relative to video                  : 9 ms
Stream size                              : 266 MiB (3%)
Language                                 : Japanese
Default                                  : Yes
Forced                                   : No

Text
ID                                       : 3
Format                                   : UTF-8
Codec ID                                 : S_TEXT/UTF8
Codec ID/Info                            : UTF-8 Plain Text
Duration                                 : 1 h 52 min
Bit rate                                 : 31 b/s
Count of elements                        : 927
Stream size                              : 25.7 KiB (0%)
Language                                 : English
Default                                  : Yes
Forced                                   : No

Menu
00:00:00.000                             : :Chapter 1
00:10:39.347                             : :Chapter 2
00:27:41.201                             : :Chapter 3
00:42:06.566                             : :Chapter 4
00:57:05.380                             : :Chapter 5
01:10:20.216                             : :Chapter 6
01:24:18.804                             : :Chapter 7
01:37:17.540                             : :Chapter 8
01:44:52.328                             : :Chapter 9

5b141cd5889e321c2aaf935f4ac4a5fd.png

[/url]60e01149518bd4b1446ba33802863cef.png

[/url]



                                                                                                                                                                                                        
                                                                                                                                                                                                                                                                                                                                                                                                                                                                                                                                                                                                                                                                                                                                                                                                                                                        
acb35a9a4e384f91b597c94cd0961c0f.torrent (40.83 KB, 下载次数: 0)

回复

使用道具 举报

小黑屋|西西论坛

本网站所有资源来自网络,如无意中侵犯了您的权益,请发邮件至 [email protected],立即清除相关链接

GMT+8, 2021-6-14 22:21 , Processed in 0.065629 second(s), 17 queries .

Powered by Discuz! X3.2

© 2001-2013 Comsenz Inc.

快速回复 返回顶部 返回列表