西西论坛

 找回密码
 立即注册
搜索

十万火急/龙出生天 Daylight.1996.REMASTERED.1080p.BluRay.x264.TrueHD.7.1.Atmos-FG ...

[复制链接]
admin 发表于 2021-5-14 09:45:48 | 显示全部楼层 |阅读模式
十万火急/龙出生天 Daylight.1996.REMASTERED.1080p.BluRay.x264.TrueHD.7.1.Atmos-FGT 13.12G                                                                                                                                                                                                                                                                                                                                                                                                                                                                                                                                        -->
帖子完整标题:十万火急/龙出生天 Daylight.1996.REMASTERED.1080p.BluRay.x264.TrueHD.7.1.Atmos-FGT 13.12GB



cbd49df1e914e0c3dfcf218b46303508.jpg

[/url]

◎译  名 十万火急/龙出生天
◎片  名 Daylight
◎年  代 1996
◎产  地 美国
◎类  别 动作 / 冒险 / 灾难
◎语  言 英语
◎上映日期 1996-12-06
◎IMDb评分  5.9/10 from 67889 users
◎IMDb链接  
◎豆瓣评分 7.3/10 from 5312 users
◎豆瓣链接 
◎片  长 114分钟
◎导  演 罗伯·科恩 Rob Cohen
◎编  剧 莱斯利·博希姆 Leslie Bohem
◎主  演 西尔维斯特·史泰龙 Sylvester Stallone
       艾米·布伦尼曼 Amy Brenneman
       维果·莫腾森 Viggo Mortensen
       丹·哈达亚 Dan Hedaya
       杰伊·桑德斯 Jay O. Sanders
       凯伦·杨 Karen Young
       克莱尔·布鲁姆 Claire Bloom
       瓦妮莎·贝尔·卡洛威 Vanessa Bell Calloway
       雷诺里·圣地亚哥 Renoly Santiago
       科林·福克斯 Colin Fox
       丹妮尔·哈丽丝 Danielle Harris
       Trina McGee
       塞奇·史泰龙 Sage Stallone
       乔·安德森 Jo Anderson
       马克·罗斯顿 Mark Rolston
       罗丝玛丽·福赛思 Rosemary Forsyth
       王洛勇 Luoyong Wang
       巴瑞·纽曼 Barry Newman
       斯坦·肖 Stan Shaw
       Mark Chadwick
       李·奥克斯 Lee Oakes
       沙基纳·贾弗里 Sakina Jaffrey
       艾伯特·麦克林 Albert Macklin
       约瑟夫·劳格诺 Joseph Ragno
       内斯特·塞拉诺 Nestor Serrano
       约翰·利斯 John Lees
       Stephen James
       伊西斯·马森登 Isis Mussenden
       罗伯·科恩 Rob Cohen
       帕梅拉·佩林 Pamela Perrine
       Dale Resteghini

◎标  签 灾难 | 美国 | 史泰龙 | 动作 | 1996 | 美国电影 | 十万火急 | 冒险

◎简  介

  这天无数往来于曼哈顿与新泽西州的海底隧道的美国民众像往常一样在隧道内抱怨着交通堵塞,岂料死神正在步步逼近。隧道内一辆装满化学物品的卡车意外发生了爆炸,强大的冲击力使得隧道坍塌了,出入口都被堵死了。此时,隧道内一片火海,弥漫着有毒烟雾,河水也在不断涌进,无数无辜的市民们能做似乎只有等死。
  
  救援队其实早到了,然而隧道被封,里面的有毒烟雾肆虐,救援人员迟迟不敢贸然动手。十万火急之际,出租车司机、前救援队队员骆查(西尔维斯特?史泰龙 Sylvester Stallone 饰)挺身而出了。他从通风口爬进了隧道,他稳定住了隧道内众人的情绪,带领大家开始了生死逃亡。

◎获奖情况

  第69届奥斯卡金像奖 ?(1997)
  最佳音效剪辑(提名) 理查德·路易斯·安德森?/?大卫·A·惠特克
Video
ID                                       : 1
Format                                   : AVC
Format/Info                              : Advanced Video Codec
Format profile                           :
Format settings                          : CABAC / 4 Ref Frames
Format settings, CABAC                   : Yes
Format settings, Reference frames        : 4 frames
Codec ID                                 : V_MPEG4/ISO/AVC
Duration                                 : 1 h 54 min
Bit rate                                 : 11.5 Mb/s
Width                                    : 1 920 pixels
Height                                   : 1 040 pixels
Display aspect ratio                     : 1.85:1
Frame rate mode                          : Constant
Frame rate                               : 23.976 (24000/1001/189150) FPS
Color space                              : YUV
Chroma subsampling                       : 4:2:0
Bit depth                                : 8 bits
Scan type                                : Progressive
Bits/(Pixel*Frame)                       : 0.240
Stream size                              : 9.19 GiB (70%)
Writing library                          : x264 core 148 r2748 97eaef2
Encoding settings                        : cabac=1 / ref=4 / deblock=1:-2:-2 / analyse=0x3:0x113 / me=umh / subme=9 / psy=1 / psy_rd=1.00:0.15 / mixed_ref=1 / me_range=16 / chroma_me=1 / trellis=2 / 8x8dct=1 / cqm=0 / deadzone=21,11 / fast_pskip=1 / chroma_qp_offset=-3 / threads=72 / lookahead_threads=3 / sliced_threads=0 / nr=0 / decimate=1 / interlaced=0 / bluray_compat=0 / constrained_intra=0 / bframes=3 / b_pyramid=2 / b_adapt=1 / b_bias=0 / direct=3 / weightb=1 / open_gop=0 / weightp=2 / keyint=250 / keyint_min=25 / scenecut=40 / intra_refresh=0 / rc_lookahead=50 / rc=2pass / mbtree=1 / bitrate=11500 / ratetol=1.0 / qcomp=0.60 / qpmin=0 / qpmax=69 / qpstep=4 / cplxblur=20.0 / qblur=0.5 / vbv_maxrate=31250 / vbv_bufsize=31250 / nal_hrd=none / filler=0 / ip_ratio=1.40 / aq=1:1.00
Language                                 : English
Default                                  : Yes
Forced                                   : No

Audio #1
ID                                       : 2
ID in the original source medium         : 4354 (0x1102)
Format                                   : MLP FBA 16-ch
Format/Info                              : Meridian Lossless Packing FBA with 16-channel presentation
Commercial name                          : Dolby TrueHD with Dolby Atmos
Codec ID                                 : A_TRUEHD
Duration                                 : 1 h 55 min
Bit rate mode                            : Variable
Bit rate                                 : 4 106 kb/s
Maximum bit rate                         : 6 657 kb/s
Channel(s)                               : 8 channels
Channel layout                           : L R C LFE Ls Rs Lb Rb
Sampling rate                            : 48.0 kHz
Frame rate                               : 1 200.000 FPS (40 SPF)
Bit depth                                : 24 bits
Compression mode                         : Lossless
Delay relative to video                  : 417 ms
Stream size                              : 3.32 GiB (25%)
Title                                    : TrueHD 7.1 Atmos
Language                                 : English
Default                                  : Yes
Forced                                   : No
Original source medium                   : Blu-ray
Number of dynamic objects                : 13
Bed channel count                        : 1 channel
Bed channel configuration                : LFE

Audio #2
ID                                       : 3
ID in the original source medium         : 4354 (0x1102)
Format                                   : AC-3
Format/Info                              : Audio Coding 3
Commercial name                          : Dolby Digital
Format settings                          : Dolby Surround EX
Codec ID                                 : A_AC3
Duration                                 : 1 h 55 min
Bit rate mode                            : Constant
Bit rate                                 : 640 kb/s
Channel(s)                               : 6 channels
Channel layout                           : L R C LFE Ls Rs
Sampling rate                            : 48.0 kHz
Frame rate                               : 31.250 FPS (1536 SPF)
Compression mode                         : Lossy
Delay relative to video                  : 417 ms
Stream size                              : 529 MiB (4%)
Title                                    : DD 5.1
Language                                 : English
Service kind                             : Complete Main
Default                                  : No
Forced                                   : No
Original source medium                   : Blu-ray

Text #1
ID                                       : 4
Format                                   : UTF-8
Codec ID                                 : S_TEXT/UTF8
Codec ID/Info                            : UTF-8 Plain Text
Duration                                 : 1 h 46 min
Bit rate                                 : 57 b/s
Count of elements                        : 1220
Stream size                              : 44.7 KiB (0%)
Title                                    : English-SRT
Language                                 : English
Default                                  : Yes
Forced                                   : No

Text #2
ID                                       : 5
ID in the original source medium         : 4610 (0x1202)
Format                                   : PGS
Muxing mode                              : zlib
Codec ID                                 : S_HDMV/PGS
Codec ID/Info                            : Picture based subtitle format used on BDs/HD-DVDs
Duration                                 : 1 h 46 min
Bit rate                                 : 36.8 kb/s
Count of elements                        : 2426
Stream size                              : 28.1 MiB (0%)
Title                                    : English-PGS
Language                                 : English
Default                                  : No
Forced                                   : No
Original source medium                   : Blu-ray

Text #3
ID                                       : 6
ID in the original source medium         : 4611 (0x1203)
Format                                   : PGS
Muxing mode                              : zlib
Codec ID                                 : S_HDMV/PGS
Codec ID/Info                            : Picture based subtitle format used on BDs/HD-DVDs
Duration                                 : 1 h 51 min
Bit rate                                 : 38.4 kb/s
Count of elements                        : 2670
Stream size                              : 30.7 MiB (0%)
Title                                    : English-PGS
Language                                 : English
Default                                  : No
Forced                                   : No
Original source medium                   : Blu-ray

Text #4
ID                                       : 7
ID in the original source medium         : 4613 (0x1205)
Format                                   : PGS
Muxing mode                              : zlib
Codec ID                                 : S_HDMV/PGS
Codec ID/Info                            : Picture based subtitle format used on BDs/HD-DVDs
Duration                                 : 1 h 54 min
Bit rate                                 : 60.2 kb/s
Count of elements                        : 3150
Stream size                              : 49.2 MiB (0%)
Title                                    : English-PGS
Language                                 : English
Default                                  : No
Forced                                   : No
Original source medium                   : Blu-ray

Menu
00:00:00.000                             : Chapter 01
00:04:26.933                             : Chapter 02
00:06:52.120                             : Chapter 03
00:10:29.670                             : Chapter 04
00:14:34.290                             : Chapter 05
00:16:57.433                             : Chapter 06
00:21:38.505                             : Chapter 07
00:24:15.954                             : Chapter 08
00:27:34.569                             : Chapter 09
00:34:10.923                             : Chapter 10
00:40:00.773                             : Chapter 11
00:45:21.135                             : Chapter 12
00:50:40.704                             : Chapter 13
00:54:51.204                             : Chapter 14
01:01:12.835                             : Chapter 15
01:08:06.540                             : Chapter 16
01:13:17.851                             : Chapter 17
01:17:53.752                             : Chapter 18
01:22:24.064                             : Chapter 19
01:25:49.602                             : Chapter 20
01:30:55.992                             : Chapter 21
01:35:22.967                             : Chapter 22
01:38:16.974                             : Chapter 23
01:42:14.294                             : Chapter 24
01:48:33.798                             : Chapter 25

4a4a33b58922a3c5340728baf6837abe.png

[/url]0ac703181a3c5365f8f5306239d58f43.png

[/url]186394f9a4da470247287f692bb0097f.png

[/url]



                                                                                                                                                                                                        
                                                                                                                                                                                                                                                                                                                                                                                                                                                                                                                                                                                                                                                                                                                                                                                                                                                        
bd1f791c624cb731a3cdf354feaa41d2.torrent (66.23 KB, 下载次数: 0)

回复

使用道具 举报

小黑屋|西西论坛

本网站所有资源来自网络,如无意中侵犯了您的权益,请发邮件至 [email protected],立即清除相关链接

GMT+8, 2021-6-14 22:34 , Processed in 0.067849 second(s), 17 queries .

Powered by Discuz! X3.2

© 2001-2013 Comsenz Inc.

快速回复 返回顶部 返回列表