西西论坛

 找回密码
 立即注册
搜索

[纯净版][BT下载][重启之深渊疑冢][WEB-MKV/2.8GB][国语中字][4K][Vampire][无水印][6 ...

[复制链接]
admin 发表于 2022-11-5 20:18:12 | 显示全部楼层 |阅读模式
-->a280abc392e7cb61daef66e94c41de41.jpg




◎片  名 重启之深渊疑冢 / 重启2
◎译  名 Restart.:Abyss.Mystery.Tomb
◎年  代 2022
◎产  地 中国大陆
◎类  别 悬疑 / 惊悚 / 恐怖
◎语  言 汉语普通话
◎上映日期 2022-11-04(中国大陆网络)
◎IMDb链接
◎豆瓣评分 0/10 (0 人评价)
◎豆瓣链接 https://movie.douban.com/subject/35561832
◎片  长 90分钟
◎导  演 陈聚力 Juli Chen (id:1400685)
◎编  剧 陈聚力 Juli Chen (id:1400685)
       徐磊 Lei Xu (id:1349772)
◎演  员 季晨 Chen Ji (id:1323190)
       季肖冰 Xiaobing Ji (id:1327262)


◎简  介


  黑眼镜(季晨 饰)和解雨臣(季肖冰 饰)相遇神秘古寨,携手闯入深渊破解迷局,力破上古之争。电影《重启之深渊疑冢》即将上映,等你破局。


General


Complete name               : G:\重启之深渊疑冢.Restart.:Abyss.Mystery.Tomb.2022.4K.WEB-DL.X265.60FPS.10bit.AAC-Vampire.mkv
Format                      : Matroska
Format version              : Version 4
File size                   : 2.80 GiB
Duration                    : 1 h 30 min
Overall bit rate            : 4 451 kb/s
Movie name                  : 重启之深渊疑冢.Restart.:Abyss.Mystery.Tomb.2022.4K.WEB-DL.X265.60FPS.10bit.AAC-Vampire / 重启之深渊疑冢.Restart.:Abyss.Mystery.Tomb
Comment                     : 警告:严禁将本人制作的任何作品用于商业性质活动,所有制作作品仅限于测试宽带之用,请于下载后24小时内删除。本人不承担任何法律后果!喜欢本作品请购买正版!!!
ARTIST                      : Vampire制作分享作品
DATE_RECORDED               : 2022
GENRE                       : 中国大陆


Video
ID                          : 1
Format                      : HEVC
Format/Info                 : High Efficiency Video Coding
Format profile              : Main [email protected]@Main
Codec ID                    : V_MPEGH/ISO/HEVC
Duration                    : 1 h 30 min
Bit rate                    : 4 257 kb/s
Width                       : 3 840 pixels
Height                      : 1 632 pixels
Display aspect ratio        : 2.35:1
Frame rate mode             : Constant
Frame rate                  : 60.000 FPS
Color space                 : YUV
Chroma subsampling          : 4:2:0
Bit depth                   : 10 bits
Bits/(Pixel*Frame)          : 0.011
Stream size                 : 2.68 GiB (96%)
Title                       : Vampire制作分享作品
Language                    : Chinese
Default                     : No
Forced                      : No
Color range                 : Limited
Color primaries             : BT.709
Transfer characteristics    : BT.709
Matrix coefficients         : BT.709


Audio
ID                          : 2
Format                      : AAC LC
Format/Info                 : Advanced Audio Codec Low Complexity
Codec ID                    : A_AAC-2
Duration                    : 1 h 30 min
Bit rate                    : 192 kb/s
Channel(s)                  : 2 channels
Channel layout              : L R
Sampling rate               : 44.1 kHz
Frame rate                  : 43.066 FPS (1024 SPF)
Compression mode            : Lossy
Stream size                 : 122 MiB (4%)
Title                       : 汉语普通话
Language                    : Chinese
Default                     : No
Forced                      : No
50bf39be771d549a969dd75dd432667e.jpg



本人发布的种子请使用专业BT下载工具:
UT,Bitcomet,qBittorrent,Xdown开启上传后再下载!!!
使用迅雷或网盘离线可能会没速度!!!


视频的网盘资源均修改了视频后缀(如mp4或mkv)修改为.PDF,用以混淆官方视听!
并且加密了文件名,设置了独有的解压密码,请使用WinRAR解压,使用好压或其他可能会出错!!

网盘版所有压缩包下载完毕后解压第一个包即可全部解压(有些可能有解压密码),解压后自行将后缀名“PDF”修改为“mp4或者mkv”后即可正常播放!!!

已完结剧集不再分集打包上传,整体打包后分卷,无法单独下载某一集,需要全部下载后一起解压,敬请知晓!!!
请各位下载的坛友先保存至自己的网盘,然后再进行下载!
不要直接在线观看或者解压,否则会很快被网盘官方发觉并和谐!!

网盘版资源一旦和谐,皆不会免费补档,请谨慎举报资源!!!


请下载完成的朋友自觉做种一段时间,小水管出种不易,且下且珍惜,谢谢!!!
                                                                                                                                                                                                        
                                                                                                                                                                                                                                                                                                                                                                                                                                                                                                                                                                                                                                                                                                                                                                                                                                                        
a0149a06689a83df39192de942b58ceb.rar (1.21 MB, 下载次数: 0)

回复

使用道具 举报

小黑屋|西西论坛

本网站所有资源来自网络,如无意中侵犯了您的权益,请发邮件至 [email protected],立即清除相关链接

GMT+8, 2023-1-28 09:48 , Processed in 0.143263 second(s), 26 queries .

Powered by Discuz! X3.2

© 2001-2013 Comsenz Inc.

快速回复 返回顶部 返回列表