西西论坛

 找回密码
 立即注册
搜索

清算 A.Reckoning.2018.1080p.BluRay.x264-FREEMAN 7.78GB

[复制链接]
admin 发表于 2022-1-2 08:01:32 | 显示全部楼层 |阅读模式
清算 A.Reckoning.2018.1080p.BluRay.x264-FREEMAN 7.78GB                                                                                                                                                                                                                                                                                                                                                                                                                                                                                                                                        -->
帖子完整标题:清算 A.Reckoning.2018.1080p.BluRay.x264-FREEMAN 7.78GB





◎译  名 清算/A Reckoning/The Reckoning
◎片  名 Where the Wild Rivers Run
◎年  代 2018
◎产  地 美国
◎类  别 西部
◎语  言 英语
◎上映日期 2018-08-07(美国)
◎豆瓣评分 /10 from 0 users
◎豆瓣链接 
◎片  长 80分钟
◎导  演 贾斯汀·李 Justin Lee
◎编  剧 贾斯汀·李 Justin Lee
◎主  演 托德·罗宾森 Todd Robinson

◎标  签 复仇 | 西部 | 女性

◎简  介

  After her husband is brutally murdered, a widowed homesteader seeks revenge and leaves everything behind to hunt down his killer.
Video
ID                                       : 1
Format                                   : AVC
Format/Info                              : Advanced Video Codec
Format profile                           :
Format settings                          : CABAC / 5 Ref Frames
Format settings, CABAC                   : Yes
Format settings, Reference frames        : 5 frames
Codec ID                                 : V_MPEG4/ISO/AVC
Duration                                 : 1 h 20 min
Bit rate                                 : 9 916 kb/s
Width                                    : 1 920 pixels
Height                                   : 804 pixels
Display aspect ratio                     : 2.40:1
Frame rate mode                          : Constant
Frame rate                               : 23.976 (24000/1001/189150) FPS
Color space                              : YUV
Chroma subsampling                       : 4:2:0
Bit depth                                : 8 bits
Scan type                                : Progressive
Bits/(Pixel*Frame)                       : 0.268
Stream size                              : 5.59 GiB (72%)
Writing library                          : x264 core 164 r3079 d9a19f0
Encoding settings                        : cabac=1 / ref=5 / deblock=1:-3:-3 / analyse=0x3:0x133 / me=umh / subme=9 / psy=1 / psy_rd=1.00:0.00 / mixed_ref=1 / me_range=16 / chroma_me=1 / trellis=2 / 8x8dct=1 / cqm=0 / deadzone=21,11 / fast_pskip=1 / chroma_qp_offset=-2 / threads=12 / lookahead_threads=1 / sliced_threads=0 / nr=0 / decimate=1 / interlaced=0 / bluray_compat=0 / constrained_intra=0 / bframes=3 / b_pyramid=2 / b_adapt=2 / b_bias=0 / direct=3 / weightb=1 / open_gop=0 / weightp=2 / keyint=250 / keyint_min=23 / scenecut=40 / intra_refresh=0 / rc_lookahead=60 / rc=crf / mbtree=1 / crf=18.0 / qcomp=0.60 / qpmin=0 / qpmax=69 / qpstep=4 / ip_ratio=1.40 / aq=3:0.80
Language                                 : English
Default                                  : Yes
Forced                                   : No

Audio
ID                                       : 2
Format                                   : DTS XLL
Format/Info                              : Digital Theater Systems
Commercial name                          : DTS-HD Master Audio
Codec ID                                 : A_DTS
Duration                                 : 1 h 20 min
Bit rate mode                            : Variable
Bit rate                                 : 3 887 kb/s
Channel(s)                               : 6 channels
Channel layout                           : C L R Ls Rs LFE
Sampling rate                            : 48.0 kHz
Frame rate                               : 93.750 FPS (512 SPF)
Bit depth                                : 24 bits
Compression mode                         : Lossless
Stream size                              : 2.19 GiB (28%)
Title                                    : dtshd
Language                                 : English
Default                                  : Yes
Forced                                   : No

Menu
00:00:00.000                             : en:00:00:00.000
00:10:06.606                             : en:00:10:06.606
00:19:55.194                             : en:00:19:55.194
00:30:16.815                             : en:00:30:16.815
00:40:26.424                             : en:00:40:26.424
00:51:23.080                             : en:00:51:23.080
01:00:51.648                             : en:01:00:51.648
01:10:48.244                             : en:01:10:48.244
01:18:47.723                             : en:01:18:47.723





                                                                                                                                                                                                        
                                                                                                                                                                                                                                                                                                                                                                                                                                                                                                                                                                                                                                                                                                                                                                                                                                                        
3fa981b1dd85baec7dd7fe097a8a6ed3.torrent (20.14 KB, 下载次数: 0)

回复

使用道具 举报

小黑屋|西西论坛

本网站所有资源来自网络,如无意中侵犯了您的权益,请发邮件至 [email protected],立即清除相关链接

GMT+8, 2022-6-27 05:26 , Processed in 0.130385 second(s), 17 queries .

Powered by Discuz! X3.2

© 2001-2013 Comsenz Inc.

快速回复 返回顶部 返回列表