西西论坛

 找回密码
 立即注册
搜索

爱在飞翔 The.Plane.2005.FRENCH.1080p.BluRay.x264.DDP5.1-PTer 10.46GB

[复制链接]
admin 发表于 2021-12-31 10:00:19 | 显示全部楼层 |阅读模式
爱在飞翔 The.Plane.2005.FRENCH.1080p.BluRay.x264.DDP5.1-PTer 10.46GB                                                                                                                                                                                                                                                                                                                                                                                                                                                                                                                                        -->
帖子完整标题:爱在飞翔 The.Plane.2005.FRENCH.1080p.BluRay.x264.DDP5.1-PTer 10.46GB





◎译  名 爱在飞翔/The Airplane/小飞机/飞机
◎片  名 L'Avion
◎年  代 2005
◎产  地 法国,德国
◎类  别 剧情 / 儿童 / 奇幻
◎语  言 法语
◎上映日期 2005-07-20
◎豆瓣评分 7.4/10 from 425 users
◎豆瓣链接 
◎片  长 France: 100 分钟
◎导  演 塞德里克·康 Cédric Kahn
◎编  剧 塞德里克·康 Cédric Kahn / 伊斯梅尔·菲鲁基 Isma?l Ferroukhi / 吉勒·马尚 Gilles Marchand
◎主  演 罗多尔·保利 Rodolphe Pauly
       索菲·吉耶曼 Sophie Guillemin
       伊莎贝尔·卡雷 Isabelle Carré
       尼古拉斯·布赖恩松 Nicolas Brian?on
       文森特·林顿 Vincent Lindon
       罗密欧·波茨扎瑞斯 Roméo Botzaris

◎标  签 法国 | 儿童 | 奇幻 | 法国电影 | 温情 | 爱在飞翔 | 电影 | 剧情

◎简  介

  八岁的小男孩查理(Roméo Botzaris 罗密欧?波扎利斯 饰)急切企盼圣诞节的来临,因为父亲皮耶(Vincent Lindon 文森特?林顿 饰)答应送他一辆自行车作为节日礼物。但是当他好不容易等到父亲回家时,却发现他的礼物只是一架白色的飞机模型。父亲看出查理的失望,答应当查理生日时一定送他自行车。
  
  不久,身为飞行员的皮耶在执行任务时不幸遇难,只留下悲伤的妻子凯瑟琳(Isabelle Carré 伊莎贝尔?卡瑞 饰)和儿子查理相依为命。查理每晚抱着父亲送给他的飞机睡觉,希望以此能够与父亲更近。不过他却发现,这架飞机竟然能够自由飞翔……
Video
ID                                       : 1
Format                                   : AVC
Format/Info                              : Advanced Video Codec
Format profile                           :
Format settings                          : CABAC / 5 Ref Frames
Format settings, CABAC                   : Yes
Format settings, Reference frames        : 5 frames
Codec ID                                 : V_MPEG4/ISO/AVC
Duration                                 : 1 h 37 min
Bit rate                                 : 14.3 Mb/s
Width                                    : 1 920 pixels
Height                                   : 822 pixels
Display aspect ratio                     : 2.35:1
Frame rate mode                          : Constant
Frame rate                               : 24.000 FPS
Color space                              : YUV
Chroma subsampling                       : 4:2:0
Bit depth                                : 8 bits
Scan type                                : Progressive
Bits/(Pixel*Frame)                       : 0.378
Stream size                              : 9.76 GiB (93%)
Writing library                          : x264 core 164 r3065 ae03d92
Encoding settings                        : cabac=1 / ref=5 / deblock=1:-3:-3 / analyse=0x3:0x133 / me=umh / subme=11 / psy=1 / psy_rd=1.02:0.00 / mixed_ref=1 / me_range=32 / chroma_me=1 / trellis=2 / 8x8dct=1 / cqm=0 / deadzone=21,11 / fast_pskip=0 / chroma_qp_offset=-2 / threads=18 / lookahead_threads=4 / sliced_threads=0 / nr=0 / decimate=0 / interlaced=0 / bluray_compat=0 / constrained_intra=0 / bframes=13 / b_pyramid=2 / b_adapt=2 / b_bias=0 / direct=3 / weightb=1 / open_gop=0 / weightp=2 / keyint=250 / keyint_min=24 / scenecut=40 / intra_refresh=0 / rc_lookahead=250 / rc=crf / mbtree=0 / crf=17.5 / qcomp=0.60 / qpmin=0 / qpmax=69 / qpstep=4 / vbv_maxrate=62500 / vbv_bufsize=78125 / crf_max=0.0 / nal_hrd=none / filler=0 / ip_ratio=1.30 / pb_ratio=1.20 / aq=3:0.65
Default                                  : Yes
Forced                                   : No
Color range                              : Limited
Color primaries                          : BT.709
Matrix coefficients                      : BT.709

Audio
ID                                       : 2
Format                                   : E-AC-3
Format/Info                              : Enhanced AC-3
Commercial name                          : Dolby Digital Plus
Codec ID                                 : A_EAC3
Duration                                 : 1 h 37 min
Bit rate mode                            : Constant
Bit rate                                 : 1 024 kb/s
Channel(s)                               : 6 channels
Channel layout                           : L R C LFE Ls Rs
Sampling rate                            : 48.0 kHz
Frame rate                               : 31.250 FPS (1536 SPF)
Compression mode                         : Lossy
Stream size                              : 715 MiB (7%)
Title                                    : French
Language                                 : French
Service kind                             : Complete Main
Default                                  : Yes
Forced                                   : No

Text #1
ID                                       : 3
Format                                   : UTF-8
Codec ID                                 : S_TEXT/UTF8
Codec ID/Info                            : UTF-8 Plain Text
Duration                                 : 1 h 32 min
Bit rate                                 : 20 b/s
Count of elements                        : 531
Stream size                              : 13.6 KiB (0%)
Title                                    : Chinese (Simplified)
Language                                 : Chinese
Default                                  : No
Forced                                   : No

Text #2
ID                                       : 4
Format                                   : UTF-8
Codec ID                                 : S_TEXT/UTF8
Codec ID/Info                            : UTF-8 Plain Text
Duration                                 : 1 h 32 min
Bit rate                                 : 20 b/s
Count of elements                        : 531
Stream size                              : 13.6 KiB (0%)
Title                                    : Chinese (Traditional)
Language                                 : Chinese
Default                                  : No
Forced                                   : No

Text #3
ID                                       : 5
Format                                   : UTF-8
Codec ID                                 : S_TEXT/UTF8
Codec ID/Info                            : UTF-8 Plain Text
Duration                                 : 1 h 31 min
Bit rate                                 : 20 b/s
Count of elements                        : 530
Stream size                              : 14.0 KiB (0%)
Title                                    : English
Language                                 : English
Default                                  : No
Forced                                   : No

Text #4
ID                                       : 6
Format                                   : UTF-8
Codec ID                                 : S_TEXT/UTF8
Codec ID/Info                            : UTF-8 Plain Text
Duration                                 : 1 h 31 min
Bit rate                                 : 31 b/s
Count of elements                        : 704
Stream size                              : 21.4 KiB (0%)
Title                                    : French(SDH)
Language                                 : French
Default                                  : No
Forced                                   : No

Text #5
ID                                       : 7
Format                                   : UTF-8
Codec ID                                 : S_TEXT/UTF8
Codec ID/Info                            : UTF-8 Plain Text
Duration                                 : 1 h 32 min
Bit rate                                 : 21 b/s
Count of elements                        : 529
Stream size                              : 14.8 KiB (0%)
Title                                    : Portuguese
Language                                 : Portuguese
Default                                  : No
Forced                                   : No

Text #6
ID                                       : 8
Format                                   : UTF-8
Codec ID                                 : S_TEXT/UTF8
Codec ID/Info                            : UTF-8 Plain Text
Duration                                 : 1 h 37 min
Bit rate                                 : 22 b/s
Count of elements                        : 566
Stream size                              : 15.8 KiB (0%)
Title                                    : Dutch
Language                                 : Dutch
Default                                  : No
Forced                                   : No

Text #7
ID                                       : 9
Format                                   : UTF-8
Codec ID                                 : S_TEXT/UTF8
Codec ID/Info                            : UTF-8 Plain Text
Duration                                 : 1 h 32 min
Bit rate                                 : 30 b/s
Count of elements                        : 489
Stream size                              : 20.8 KiB (0%)
Title                                    : Hebrew
Language                                 : Hebrew
Default                                  : No
Forced                                   : No

Menu
00:00:00.000                             : en:Chapter 01
00:01:36.375                             : en:Chapter 02
00:10:53.833                             : en:Chapter 03
00:24:25.375                             : en:Chapter 04
00:39:04.917                             : en:Chapter 05
00:46:43.458                             : en:Chapter 06
00:57:09.000                             : en:Chapter 07
01:05:07.917                             : en:Chapter 08
01:11:13.333                             : en:Chapter 09
01:18:40.625                             : en:Chapter 10
01:25:14.208                             : en:Chapter 11
01:32:36.333                             : en:Chapter 12





                                                                                                                                                                                                        
                                                                                                                                                                                                                                                                                                                                                                                                                                                                                                                                                                                                                                                                                                                                                                                                                                                        
eecc9512d5ee23e38e4dac7953f56ea4.torrent (13.69 KB, 下载次数: 0)

回复

使用道具 举报

小黑屋|西西论坛

本网站所有资源来自网络,如无意中侵犯了您的权益,请发邮件至 [email protected],立即清除相关链接

GMT+8, 2022-1-20 04:37 , Processed in 0.125983 second(s), 17 queries .

Powered by Discuz! X3.2

© 2001-2013 Comsenz Inc.

快速回复 返回顶部 返回列表