西西论坛

 找回密码
 立即注册
搜索

我的魔鬼 My.Best.Fiend.1999.GERMAN.1080p.BluRay.x264.FLAC2.0-EA 14.58GB

[复制链接]
admin 发表于 2021-12-31 09:59:54 | 显示全部楼层 |阅读模式
我的魔鬼 My.Best.Fiend.1999.GERMAN.1080p.BluRay.x264.FLAC2.0-EA 14.58GB                                                                                                                                                                                                                                                                                                                                                                                                                                                                                                                                        -->
帖子完整标题:我的魔鬼 My.Best.Fiend.1999.GERMAN.1080p.BluRay.x264.FLAC2.0-EA 14.58GB



2be8db0939b9497a9406e44539ca7f6f.jpg



◎译  名 我的魔鬼/My Best Fiend/My Best Fiend - Klaus Kinski
◎片  名 Mein liebster Feind - Klaus Kinski
◎年  代 1999
◎产  地 英国,德国,芬兰,美国
◎类  别 纪录片 / 传记
◎语  言 德语,英语,西班牙语
◎上映日期 1999-10-07(德国)
◎豆瓣评分 8.4/10 from 812 users
◎豆瓣链接 
◎片  长 95 分钟
◎导  演 沃纳·赫尔佐格 Werner Herzog
◎编  剧 沃纳·赫尔佐格 Werner Herzog
◎主  演 沃纳·赫尔佐格 Werner Herzog
       伊莎贝尔·阿佳妮 Isabelle Adjani
       克劳迪娅·卡汀娜 Claudia Cardinale
       克劳斯·金斯基 Klaus Kinski
       米克·贾格尔 Mick Jagger
       埃娃·马特斯 Eva Mattes
       托马斯·毛赫 Thomas Mauch
       杰森·罗巴兹 Jason Robards

◎标  签 纪录片 | 德国 | 赫尔佐格 | WernerHerzog | 克劳斯·金斯基 | 德国电影 | 沃纳·赫尔佐格 | 阿佳妮

◎简  介

  本片是德国新电影运动的代表人物、著名导演赫佐格为纪念他那位举世闻名、而又充满争议的老友克劳斯·金斯基所拍摄的纪录片。在本片中,观众可以随着赫佐格重返昔日两人合作过的电影场景,采访相关人士,也有当年留下的许多珍贵的镜头。
Video
ID                                       : 1
Format                                   : AVC
Format/Info                              : Advanced Video Codec
Format profile                           :
Format settings                          : CABAC / 4 Ref Frames
Format settings, CABAC                   : Yes
Format settings, Reference frames        : 4 frames
Codec ID                                 : V_MPEG4/ISO/AVC
Duration                                 : 1 h 38 min
Bit rate                                 : 20.0 Mb/s
Width                                    : 1 920 pixels
Height                                   : 1 080 pixels
Display aspect ratio                     : 16:9
Frame rate mode                          : Constant
Frame rate                               : 24.000 FPS
Color space                              : YUV
Chroma subsampling                       : 4:2:0
Bit depth                                : 8 bits
Scan type                                : Progressive
Bits/(Pixel*Frame)                       : 0.401
Stream size                              : 13.8 GiB (94%)
Title                                    : -EA
Writing library                          : x264 core 161 r3027+53 2464769 t_mod_New [(8 & 10) X86_64]
Encoding settings                        : cabac=1 / ref=4 / deblock=1:-3:-3 / analyse=0x3:0x133 / me=umh / subme=10 / psy=1 / fade_compensate=0.00 / psy_rd=0.95:0.00 / mixed_ref=1 / me_range=32 / chroma_me=1 / trellis=2 / 8x8dct=1 / cqm=0 / deadzone=21,11 / fast_pskip=0 / chroma_qp_offset=-2 / threads=18 / lookahead_threads=4 / sliced_threads=0 / nr=0 / decimate=0 / interlaced=0 / bluray_compat=0 / constrained_intra=0 / fgo=0 / bframes=10 / b_pyramid=2 / b_adapt=2 / b_bias=0 / direct=3 / weightb=1 / open_gop=0 / weightp=2 / keyint=240 / keyint_min=24 / scenecut=40 / intra_refresh=0 / rc_lookahead=60 / rc=crf / mbtree=0 / crf=18.3500 / qcomp=0.65 / qpmin=0:0:0 / qpmax=69:69:69 / qpstep=4 / vbv_maxrate=62500 / vbv_bufsize=78125 / crf_max=0.0 / nal_hrd=none / filler=0 / ip_ratio=1.35 / pb_ratio=1.25 / aq=3:0.80 / aq-sensitivity=10.00 / aq-factor=1.00:1.00:1.00 / aq2=0 / aq3=0
Language                                 : German
Default                                  : Yes
Forced                                   : No
Color range                              : Limited
Color primaries                          : BT.709
Transfer characteristics                 : BT.709
Matrix coefficients                      : BT.709

Audio #1
ID                                       : 2
Format                                   : FLAC
Format/Info                              : Free Lossless Audio Codec
Codec ID                                 : A_FLAC
Duration                                 : 1 h 38 min
Bit rate mode                            : Variable
Bit rate                                 : 561 kb/s
Channel(s)                               : 2 channels
Channel layout                           : L R
Sampling rate                            : 48.0 kHz
Frame rate                               : 11.719 FPS (4096 SPF)
Bit depth                                : 16 bits
Compression mode                         : Lossless
Stream size                              : 396 MiB (3%)
Writing library                          : libFLAC 1.2.1 (UTC 2007-09-17)
Language                                 : German
Default                                  : Yes
Forced                                   : Yes

Audio #2
ID                                       : 3
Format                                   : FLAC
Format/Info                              : Free Lossless Audio Codec
Codec ID                                 : A_FLAC
Duration                                 : 1 h 38 min
Bit rate mode                            : Variable
Bit rate                                 : 578 kb/s
Channel(s)                               : 2 channels
Channel layout                           : L R
Sampling rate                            : 48.0 kHz
Frame rate                               : 11.719 FPS (4096 SPF)
Bit depth                                : 16 bits
Compression mode                         : Lossless
Stream size                              : 408 MiB (3%)
Writing library                          : libFLAC 1.2.1 (UTC 2007-09-17)
Language                                 : English
Default                                  : No
Forced                                   : No

Text #1
ID                                       : 4
Format                                   : UTF-8
Codec ID                                 : S_TEXT/UTF8
Codec ID/Info                            : UTF-8 Plain Text
Duration                                 : 1 h 36 min
Bit rate                                 : 64 b/s
Count of elements                        : 1123
Stream size                              : 45.6 KiB (0%)
Title                                    : srt
Language                                 : English
Default                                  : Yes
Forced                                   : Yes

Text #2
ID                                       : 5
Format                                   : PGS
Muxing mode                              : zlib
Codec ID                                 : S_HDMV/PGS
Codec ID/Info                            : Picture based subtitle format used on BDs/HD-DVDs
Duration                                 : 1 h 36 min
Bit rate                                 : 37.5 kb/s
Count of elements                        : 2151
Stream size                              : 25.9 MiB (0%)
Title                                    : sup
Language                                 : English
Default                                  : No
Forced                                   : No

Text #3
ID                                       : 6
Format                                   : UTF-8
Codec ID                                 : S_TEXT/UTF8
Codec ID/Info                            : UTF-8 Plain Text
Duration                                 : 1 h 36 min
Bit rate                                 : 78 b/s
Count of elements                        : 1190
Stream size                              : 55.7 KiB (0%)
Title                                    : srt (English audio)
Language                                 : English
Default                                  : No
Forced                                   : No

Text #4
ID                                       : 7
Format                                   : PGS
Muxing mode                              : zlib
Codec ID                                 : S_HDMV/PGS
Codec ID/Info                            : Picture based subtitle format used on BDs/HD-DVDs
Duration                                 : 1 h 36 min
Bit rate                                 : 45.5 kb/s
Count of elements                        : 2371
Stream size                              : 31.5 MiB (0%)
Title                                    : sup (English audio)
Language                                 : English
Default                                  : No
Forced                                   : No

Menu
00:00:00.000                             : :Chapter 01
00:03:08.708                             : :Chapter 02
00:11:49.917                             : :Chapter 03
00:22:01.000                             : :Chapter 04
00:29:31.333                             : :Chapter 05
00:39:32.625                             : :Chapter 06
00:51:16.417                             : :Chapter 07
01:02:39.417                             : :Chapter 08
01:09:37.417                             : :Chapter 09
01:17:19.625                             : :Chapter 10
01:27:59.292                             : :Chapter 11
01:35:12.375                             : :Chapter 12

c66a5619799d3fc6cc0fbc4cbcade424.png

[/url]2499e95cb424e96c6cc9564d1f964f4c.png

[/url]a792fded34afd51e6a302dc092ce3395.png

[/url]



                                                                                                                                                                                                        
                                                                                                                                                                                                                                                                                                                                                                                                                                                                                                                                                                                                                                                                                                                                                                                                                                                        
babee2aef8b720e2e385dfa775200c68.torrent (18.88 KB, 下载次数: 0)

回复

使用道具 举报

小黑屋|西西论坛

本网站所有资源来自网络,如无意中侵犯了您的权益,请发邮件至 [email protected],立即清除相关链接

GMT+8, 2022-1-20 03:23 , Processed in 0.138506 second(s), 17 queries .

Powered by Discuz! X3.2

© 2001-2013 Comsenz Inc.

快速回复 返回顶部 返回列表