西西论坛

 找回密码
 立即注册
搜索

堕落之堡 Castle.Falls.2021.1080p.BluRay.x264.DTS-FGT 8.14GB

[复制链接]
admin 发表于 2021-12-24 08:53:21 | 显示全部楼层 |阅读模式
堕落之堡 Castle.Falls.2021.1080p.BluRay.x264.DTS-FGT 8.14GB                                                                                                                                                                                                                                                                                                                                                                                                                                                                                                                                        -->
帖子完整标题:堕落之堡 Castle.Falls.2021.1080p.BluRay.x264.DTS-FGT 8.14GB



0a4f4183662ebbc9d487f2628e461b6b.jpg



◎译  名 堕落之堡
◎片  名 Castle Falls
◎年  代 2021
◎产  地 美国
◎类  别 动作 / 犯罪
◎语  言 英语
◎上映日期 2021-12-03(美国)
◎豆瓣评分 /10 from 0 users
◎豆瓣链接 
◎片  长 87分钟
◎导  演 杜夫·龙格尔 Dolph Lundgren
◎编  剧 安德鲁·克劳尔 Andrew Knauer
◎主  演 斯科特·阿金斯 Scott Adkins
       杜夫·龙格尔 Dolph Lundgren
       吉姆·E·钱德勒 Jim E. Chandler
       凯文·韦恩 Kevin Wayne
       卢克·霍克斯 Luke Hawx
        Ida Lundgren
       比尔·比利翁 Bill Billions

◎标  签 动作 | 美国 | 犯罪 | 2021

◎简  介

  由杜夫·龙格尔导演并由其与斯科特·阿金斯共同主演的《堕落之堡》(暂译)拟定于3月份开拍,讲述敌对黑帮势力计划抢走一批落在一栋公寓中的将被销毁的巨额赃款,而扼守公寓的房主却成为了他们实施计划的最大障碍。
Video
ID                                       : 1
Format                                   : AVC
Format/Info                              : Advanced Video Codec
Format profile                           :
Format settings                          : CABAC / 4 Ref Frames
Format settings, CABAC                   : Yes
Format settings, Reference frames        : 4 frames
Codec ID                                 : V_MPEG4/ISO/AVC
Duration                                 : 1 h 29 min
Bit rate                                 : 11.5 Mb/s
Width                                    : 1 920 pixels
Height                                   : 800 pixels
Display aspect ratio                     : 2.40:1
Frame rate mode                          : Constant
Frame rate                               : 23.976 (24000/1001/189150) FPS
Color space                              : YUV
Chroma subsampling                       : 4:2:0
Bit depth                                : 8 bits
Scan type                                : Progressive
Bits/(Pixel*Frame)                       : 0.312
Stream size                              : 7.20 GiB (88%)
Writing library                          : x264 core 148 r2748 97eaef2
Encoding settings                        : cabac=1 / ref=4 / deblock=1:-2:-2 / analyse=0x3:0x113 / me=umh / subme=9 / psy=1 / psy_rd=1.00:0.15 / mixed_ref=1 / me_range=16 / chroma_me=1 / trellis=2 / 8x8dct=1 / cqm=0 / deadzone=21,11 / fast_pskip=1 / chroma_qp_offset=-3 / threads=72 / lookahead_threads=3 / sliced_threads=0 / nr=0 / decimate=1 / interlaced=0 / bluray_compat=0 / constrained_intra=0 / bframes=3 / b_pyramid=2 / b_adapt=1 / b_bias=0 / direct=3 / weightb=1 / open_gop=0 / weightp=2 / keyint=250 / keyint_min=25 / scenecut=40 / intra_refresh=0 / rc_lookahead=50 / rc=2pass / mbtree=1 / bitrate=11500 / ratetol=1.0 / qcomp=0.60 / qpmin=0 / qpmax=69 / qpstep=4 / cplxblur=20.0 / qblur=0.5 / vbv_maxrate=31250 / vbv_bufsize=31250 / nal_hrd=none / filler=0 / ip_ratio=1.40 / aq=1:1.00
Language                                 : English
Default                                  : Yes
Forced                                   : No

Audio
ID                                       : 2
Format                                   : DTS
Format/Info                              : Digital Theater Systems
Codec ID                                 : A_DTS
Duration                                 : 1 h 29 min
Bit rate mode                            : Constant
Bit rate                                 : 1 509 kb/s
Channel(s)                               : 6 channels
Channel layout                           : C L R Ls Rs LFE
Sampling rate                            : 48.0 kHz
Frame rate                               : 93.750 FPS (512 SPF)
Bit depth                                : 24 bits
Compression mode                         : Lossy
Stream size                              : 967 MiB (12%)
Language                                 : English
Default                                  : Yes
Forced                                   : No

Text #1
ID                                       : 3
Format                                   : UTF-8
Codec ID                                 : S_TEXT/UTF8
Codec ID/Info                            : UTF-8 Plain Text
Duration                                 : 1 h 27 min
Bit rate                                 : 48 b/s
Count of elements                        : 1049
Stream size                              : 30.7 KiB (0%)
Language                                 : English
Default                                  : Yes
Forced                                   : No

Text #2
ID                                       : 4
Format                                   : UTF-8
Codec ID                                 : S_TEXT/UTF8
Codec ID/Info                            : UTF-8 Plain Text
Duration                                 : 1 h 28 min
Bit rate                                 : 58 b/s
Count of elements                        : 1354
Stream size                              : 38.1 KiB (0%)
Title                                    : SDH
Language                                 : English
Default                                  : No
Forced                                   : No

Menu
00:00:00.000                             : en:Chapter 01
00:09:28.651                             : en:Chapter 02
00:18:15.511                             : en:Chapter 03
00:26:34.509                             : en:Chapter 04
00:33:41.310                             : en:Chapter 05
00:41:31.030                             : en:Chapter 06
00:48:32.075                             : en:Chapter 07
00:52:09.668                             : en:Chapter 08
00:56:50.824                             : en:Chapter 09
01:05:27.465                             : en:Chapter 10
01:13:03.087                             : en:Chapter 11
01:24:06.541                             : en:Chapter 12
01:29:33.659                             : en:Chapter 13

08e41d1d8c6f4f312feb111607f2d48a.png

[/url]



                                                                                                                                                                                                        
                                                                                                                                                                                                                                                                                                                                                                                                                                                                                                                                                                                                                                                                                                                                                                                                                                                        
a87e64751c3d92ca59bc745f46818da6.torrent (20.97 KB, 下载次数: 0)

回复

使用道具 举报

小黑屋|西西论坛

本网站所有资源来自网络,如无意中侵犯了您的权益,请发邮件至 [email protected],立即清除相关链接

GMT+8, 2022-1-20 03:36 , Processed in 0.097641 second(s), 17 queries .

Powered by Discuz! X3.2

© 2001-2013 Comsenz Inc.

快速回复 返回顶部 返回列表