西西论坛

 找回密码
 立即注册
搜索

钛 The.Calculator.2014.RUSSIAN.1080p.BluRay.x264.DD5.1-HANDJOB 5.65GB

[复制链接]
admin 发表于 2021-12-22 10:51:35 | 显示全部楼层 |阅读模式
钛 The.Calculator.2014.RUSSIAN.1080p.BluRay.x264.DD5.1-HANDJOB 5.65GB                                                                                                                                                                                                                                                                                                                                                                                                                                                                                                                                        -->
帖子完整标题:钛 The.Calculator.2014.RUSSIAN.1080p.BluRay.x264.DD5.1-HANDJOB 5.65GB



5ee8094da5caf39733cb146f66cd6cd4.jpg



◎译  名 钛/Titanium/Vychislitel
◎片  名 Вычислитель
◎年  代 2014
◎产  地 俄罗斯
◎类  别 科幻
◎语  言 俄语
◎上映日期 2014-12-18(俄罗斯)
◎豆瓣评分 4.8/10 from 2104 users
◎豆瓣链接 
◎片  长 82分钟
◎主  演 维尼·琼斯 Vinnie Jones
       安娜·奇波夫斯卡娅 Anna Chipovskaya
       叶甫盖尼·米罗诺夫 Yevgeny Mironov

◎标  签 科幻 | 科幻灾难类 | 俄罗斯 | 俄罗斯电影 | 电影 | 冒险 | 奇幻 | 惊辣

◎简  介

  十名地球囚犯被流放在充满危险的星球XT-59,为了生存他们需要踏过大片沼泽地到达幸福岛,这个星球唯一的安全区,恶劣的天气和来自地下的恐怖生物是威胁他们生命阻止他们前进的最大障碍。
Video
ID                                       : 1
Format                                   : AVC
Format/Info                              : Advanced Video Codec
Format profile                           :
Format settings                          : CABAC / 5 Ref Frames
Format settings, CABAC                   : Yes
Format settings, Reference frames        : 5 frames
Codec ID                                 : V_MPEG4/ISO/AVC
Duration                                 : 1 h 23 min
Bit rate                                 : 9 078 kb/s
Width                                    : 1 920 pixels
Height                                   : 804 pixels
Display aspect ratio                     : 2.40:1
Frame rate mode                          : Constant
Frame rate                               : 25.000 FPS
Color space                              : YUV
Chroma subsampling                       : 4:2:0
Bit depth                                : 8 bits
Scan type                                : Progressive
Bits/(Pixel*Frame)                       : 0.235
Stream size                              : 5.28 GiB (93%)
Writing library                          : x264 core 157 r2935 545de2f
Encoding settings                        : cabac=1 / ref=5 / deblock=1:-3:-3 / analyse=0x3:0x133 / me=umh / subme=10 / psy=1 / psy_rd=1.00:0.00 / mixed_ref=1 / me_range=32 / chroma_me=1 / trellis=2 / 8x8dct=1 / cqm=0 / deadzone=21,11 / fast_pskip=0 / chroma_qp_offset=-2 / threads=12 / lookahead_threads=3 / sliced_threads=0 / nr=0 / decimate=0 / interlaced=0 / bluray_compat=0 / constrained_intra=0 / bframes=16 / b_pyramid=2 / b_adapt=2 / b_bias=0 / direct=3 / weightb=1 / open_gop=0 / weightp=1 / keyint=250 / keyint_min=25 / scenecut=40 / intra_refresh=0 / rc_lookahead=60 / rc=crf / mbtree=0 / crf=15.0 / qcomp=0.60 / qpmin=0 / qpmax=69 / qpstep=4 / vbv_maxrate=62500 / vbv_bufsize=78125 / crf_max=0.0 / nal_hrd=none / filler=0 / ip_ratio=1.40 / pb_ratio=1.30 / aq=1:0.70
Default                                  : Yes
Forced                                   : No
Color range                              : Limited
Color primaries                          : BT.709
Transfer characteristics                 : BT.709
Matrix coefficients                      : BT.709

Audio
ID                                       : 2
Format                                   : AC-3
Format/Info                              : Audio Coding 3
Commercial name                          : Dolby Digital
Codec ID                                 : A_AC3
Duration                                 : 1 h 23 min
Bit rate mode                            : Constant
Bit rate                                 : 640 kb/s
Channel(s)                               : 6 channels
Channel layout                           : L R C LFE Ls Rs
Sampling rate                            : 48.0 kHz
Frame rate                               : 31.250 FPS (1536 SPF)
Compression mode                         : Lossy
Stream size                              : 381 MiB (7%)
Language                                 : Russian
Service kind                             : Complete Main
Default                                  : Yes
Forced                                   : No

Text #1
ID                                       : 3
Format                                   : UTF-8
Codec ID                                 : S_TEXT/UTF8
Codec ID/Info                            : UTF-8 Plain Text
Duration                                 : 1 h 17 min
Bit rate                                 : 54 b/s
Count of elements                        : 927
Stream size                              : 30.6 KiB (0%)
Language                                 : English
Default                                  : Yes
Forced                                   : No

Text #2
ID                                       : 4
Format                                   : UTF-8
Codec ID                                 : S_TEXT/UTF8
Codec ID/Info                            : UTF-8 Plain Text
Duration                                 : 1 h 17 min
Bit rate                                 : 55 b/s
Count of elements                        : 954
Stream size                              : 31.6 KiB (0%)
Language                                 : French
Default                                  : No
Forced                                   : No

Menu
00:00:00.000                             : :Chapitre 01
00:07:05.480                             : :Chapitre 02
00:12:38.760                             : :Chapitre 03
00:21:02.720                             : :Chapitre 04
00:28:53.160                             : :Chapitre 05
00:35:10.960                             : :Chapitre 06
00:44:00.680                             : :Chapitre 07
00:50:02.160                             : :Chapitre 08
00:56:15.480                             : :Chapitre 09
01:01:46.040                             : :Chapitre 10
01:10:02.120                             : :Chapitre 11
01:15:47.080                             : :Chapitre 12





                                                                                                                                                                                                        
                                                                                                                                                                                                                                                                                                                                                                                                                                                                                                                                                                                                                                                                                                                                                                                                                                                        
86eb36519265239e979ad89ef724a0c5.torrent (14.77 KB, 下载次数: 0)

回复

使用道具 举报

小黑屋|西西论坛

本网站所有资源来自网络,如无意中侵犯了您的权益,请发邮件至 [email protected],立即清除相关链接

GMT+8, 2022-6-27 04:23 , Processed in 0.107572 second(s), 17 queries .

Powered by Discuz! X3.2

© 2001-2013 Comsenz Inc.

快速回复 返回顶部 返回列表