西西论坛

 找回密码
 立即注册
搜索

带出来交易:弃用片段 Take.It.Out.In.Trade.The.Outtakes.1995.1080p.BluRay.x264-WAT ...

[复制链接]
admin 发表于 2021-12-22 10:51:30 | 显示全部楼层 |阅读模式
带出来交易:弃用片段 Take.It.Out.In.Trade.The.Outtakes.1995.1080p.BluRay.x264-WATCHABLE 5.                                                                                                                                                                                                                                                                                                                                                                                                                                                                                                                                        -->
帖子完整标题:带出来交易:弃用片段 Take.It.Out.In.Trade.The.Outtakes.1995.1080p.BluRay.x264-WATCHABLE 5.06GB



c2d197ebb757bf73e61902392b2e4ab9.jpg



◎译  名 带出来交易:弃用片段
◎片  名 Take It Out in Trade: The Outtakes
◎年  代 1995
◎产  地 美国
◎类  别 纪录片
◎语  言 英语
◎上映日期 
◎豆瓣评分 /10 from 0 users
◎豆瓣链接 
◎片  长 70分钟
◎导  演 艾德·伍德 Edward D. Wood Jr.
◎编  剧 艾德·伍德 Edward D. Wood Jr.
◎主  演 James Kitchens James Kitchens

◎标  签 美国 | 纪录片

◎简  介

  Another lost gem from everyone’s favorite cross-dressing director, Ed Wood!  TAKE IT OUT IN TRADE is just waiting for a complete version and full restoration to be released on digital media, but in the meantime, Something Weird Video provides the next best thing – 70 minutes of outtakes from this long lost schlock classic!
  
  One of Ed Wood’s final productions, TAKE IT OUT IN TRADE is a sex film that consists of footage discovered by archivists and assembled to make some sort of sense. No audio track was found, so basically all you see are several outtakes and scenes from the movie, set to instrumental music. An ugly guy rolls around with some girls, there’s a homosexual couple, and Ed Wood is seen playing the character of a woman.
  
  Naked chicks and Ed Wood in drag.  What else can you ask for?  Well, the full movie would be great for starters.  But unfortunately, this is one of Ed’s lost films (although there are some who claim this isn’t actually a lost film and that at least one print exists – but it has never surfaced anywhere that I am aware of, so it’s lost enough for me).  But what we have here is the next best thing, 70 minutes of outtakes, re-takes, alternate scenes and bloopers from Ed’s 1970 porn film debut, discovered during the 1990’s in a Santa Monica movie theater.  Thanks to our friends at Something Weird Video, these outtakes were released on VHS in 1995, and then later as a DVD-R which is what you will find here.
  
  TAKE IT OUT IN TRADE was filmed in 2 days in a private home in Lakewood, CA.  This was Ed’s first directorial job since THE SINISTER URGE 10 years earlier, and was his first foray into porn movies.  As the story goes, Ed met some guys at one of the clubs he frequented who wanted to get their hands on some porno films.  Ed talked them into financing him to make one for them instead (and promised them some scenes that they could cut out for their “private collections”).  The film is rumored to have made it’s world premiere in a topless bar in L.A. and to have played L.A.’s Pussycat Theater circuit.
  
  According to Ed’s widow Kathy, she and Ed were in the process of losing their home when this movie was made.  “It was a cute little film which he cut and edited in his den on a movieola.  It kept me up all night, practically.  He used some of our neighbors, Kennie Duncan’s old girlfriend Nona Carver.  She played an old whore.  He wasn’t really making any money out of it, and he never did.”
  
  Star Nona Carver said that just like NECROMANIA, there were two versions of TAKE IT OUT IN TRADE made; a softcore version and a hardcore version.  “He had a couple of faggots in it,” according to Nona.  “I played the part of a madam.  I was supposed to be on the needle, running around in a little baby doll outfit.  In the film, this guy comes in, starts beating me up, and I scream and plead and cry.  Evidentally, it sounded so real the police came!  That was kind of a big joke.”
Video
ID                                       : 1
Format                                   : AVC
Format/Info                              : Advanced Video Codec
Format profile                           :
Format settings                          : CABAC / 5 Ref Frames
Format settings, CABAC                   : Yes
Format settings, Reference frames        : 5 frames
Codec ID                                 : V_MPEG4/ISO/AVC
Duration                                 : 1 h 10 min
Bit rate                                 : 10.1 Mb/s
Width                                    : 1 440 pixels
Height                                   : 1 080 pixels
Display aspect ratio                     : 4:3
Frame rate mode                          : Constant
Frame rate                               : 23.976 (24000/1001/189150) FPS
Color space                              : YUV
Chroma subsampling                       : 4:2:0
Bit depth                                : 8 bits
Scan type                                : Progressive
Bits/(Pixel*Frame)                       : 0.272
Stream size                              : 4.97 GiB (98%)
Writing library                          : x264 core 164 r3065 ae03d92
Encoding settings                        : cabac=1 / ref=5 / deblock=1:0:0 / analyse=0x3:0x133 / me=umh / subme=9 / psy=1 / psy_rd=1.00:0.00 / mixed_ref=1 / me_range=16 / chroma_me=1 / trellis=2 / 8x8dct=1 / cqm=0 / deadzone=21,11 / fast_pskip=1 / chroma_qp_offset=-2 / threads=12 / lookahead_threads=1 / sliced_threads=0 / nr=0 / decimate=1 / interlaced=0 / bluray_compat=0 / constrained_intra=0 / bframes=3 / b_pyramid=2 / b_adapt=2 / b_bias=0 / direct=3 / weightb=1 / open_gop=0 / weightp=2 / keyint=250 / keyint_min=23 / scenecut=40 / intra_refresh=0 / rc_lookahead=60 / rc=crf / mbtree=1 / crf=21.0 / qcomp=0.60 / qpmin=0 / qpmax=69 / qpstep=4 / ip_ratio=1.40 / aq=1:1.00
Default                                  : Yes
Forced                                   : No
Color range                              : Limited
Color primaries                          : BT.709
Transfer characteristics                 : BT.709
Matrix coefficients                      : BT.709

Audio
ID                                       : 2
Format                                   : AC-3
Format/Info                              : Audio Coding 3
Commercial name                          : Dolby Digital
Codec ID                                 : A_AC3
Duration                                 : 1 h 10 min
Bit rate mode                            : Constant
Bit rate                                 : 192 kb/s
Channel(s)                               : 2 channels
Channel layout                           : L R
Sampling rate                            : 48.0 kHz
Frame rate                               : 31.250 FPS (1536 SPF)
Compression mode                         : Lossy
Stream size                              : 96.3 MiB (2%)
Title                                    : English
Language                                 : English
Service kind                             : Complete Main
Default                                  : Yes
Forced                                   : No

Menu
00:00:00.000                             : Chapter 01
00:08:14.369                             : Chapter 02
00:19:37.093                             : Chapter 03
00:31:21.129                             : Chapter 04
00:48:01.462                             : Chapter 05
01:03:03.154                             : Chapter 06

b5981e1b3f0e152a338cf74c5d0058d3.png

[/url]55b644b514605506cfff492feb37b70b.png

[/url]



                                                                                                                                                                                                        
                                                                                                                                                                                                                                                                                                                                                                                                                                                                                                                                                                                                                                                                                                                                                                                                                                                        
641634ef647063852183d8b4c1fdd74c.torrent (13.38 KB, 下载次数: 0)

回复

使用道具 举报

小黑屋|西西论坛

本网站所有资源来自网络,如无意中侵犯了您的权益,请发邮件至 [email protected],立即清除相关链接

GMT+8, 2022-6-27 04:06 , Processed in 0.107603 second(s), 17 queries .

Powered by Discuz! X3.2

© 2001-2013 Comsenz Inc.

快速回复 返回顶部 返回列表