西西论坛

 找回密码
 立即注册
搜索

堡垒/堡垒危机 Fortress.2021.720p.BluRay.x264.DTS-MT 4.80GB

[复制链接]
admin 发表于 2021-12-16 00:45:17 | 显示全部楼层 |阅读模式
堡垒/堡垒危机 Fortress.2021.720p.BluRay.x264.DTS-MT 4.80GB                                                                                                                                                                                                                                                                                                                                                                                                                                                                                                                                        -->
帖子完整标题:堡垒/堡垒危机 Fortress.2021.720p.BluRay.x264.DTS-MT 4.80GB



e92a073c644d877854519aefb1eb9fc9.jpg



◎译  名 堡垒/堡垒危机
◎片  名 Fortress
◎年  代 2021
◎产  地 美国
◎类  别 动作 / 犯罪
◎语  言 英语
◎上映日期 2021-12-17(美国)
◎豆瓣评分 /10 from 0 users
◎豆瓣链接 
◎主  演 布鲁斯·威利斯 Bruce Willis
       查德·迈克尔·墨瑞 Chad Michael Murray
       杰西·麦特卡尔菲 Jesse Metcalfe
       莎侬·多赫提 Shannen Doherty
       娜塔莉·伯恩 Natalie Burn
       西恩·凯南 Sean Kanan
       西蒙·菲利普斯 Simon Phillips
       瑟达吕斯·布兰 Ser'Darius Blain

◎标  签 动作 | 美国 | 犯罪 | 布鲁斯·威利斯 | 2021

◎简  介

  A group of criminals hellbent on revenge, forces a retired officer and his son to save the day.
Video
ID                                       : 1
Format                                   : AVC
Format/Info                              : Advanced Video Codec
Format profile                           :
Format settings                          : CABAC / 12 Ref Frames
Format settings, CABAC                   : Yes
Format settings, Reference frames        : 12 frames
Codec ID                                 : V_MPEG4/ISO/AVC
Duration                                 : 1 h 38 min
Bit rate                                 : 5 439 kb/s
Width                                    : 1 280 pixels
Height                                   : 536 pixels
Display aspect ratio                     : 2.40:1
Frame rate mode                          : Constant
Frame rate                               : 23.976 (24000/1001/189150) FPS
Color space                              : YUV
Chroma subsampling                       : 4:2:0
Bit depth                                : 8 bits
Scan type                                : Progressive
Bits/(Pixel*Frame)                       : 0.331
Stream size                              : 3.75 GiB (78%)
Writing library                          : x264 core 157 r2938 2b00a84  Mod
Encoding settings                        : cabac=1 / ref=12 / deblock=1:-3:-3 / analyse=0x3:0x133 / me=umh / subme=10 / psy=1 / psy_rd=1.05:0.00 / mixed_ref=1 / me_range=32 / chroma_me=1 / trellis=2 / 8x8dct=1 / cqm=0 / deadzone=21,11 / fast_pskip=0 / chroma_qp_offset=-2 / threads=12 / lookahead_threads=2 / sliced_threads=0 / nr=0 / decimate=0 / interlaced=0 / bluray_compat=0 / constrained_intra=0 / bframes=8 / b_pyramid=2 / b_adapt=2 / b_bias=0 / direct=3 / weightb=1 / open_gop=0 / weightp=2 / keyint=250 / keyint_min=24 / scenecut=40 / intra_refresh=0 / rc_lookahead=250 / rc=crf / mbtree=0 / crf=16.8 / qcomp=0.60 / qpmin=0 / qpmax=69 / qpstep=4 / vbv_maxrate=62500 / vbv_bufsize=78125 / crf_max=0.0 / nal_hrd=none / filler=0 / ip_ratio=1.30 / pb_ratio=1.20 / aq=3:0.80
Language                                 : English
Default                                  : Yes
Forced                                   : No
Color range                              : Limited
Color primaries                          : BT.709
Matrix coefficients                      : BT.709

Audio
ID                                       : 2
Format                                   : DTS
Format/Info                              : Digital Theater Systems
Codec ID                                 : A_DTS
Duration                                 : 1 h 38 min
Bit rate mode                            : Constant
Bit rate                                 : 1 509 kb/s
Channel(s)                               : 6 channels
Channel layout                           : C L R Ls Rs LFE
Sampling rate                            : 48.0 kHz
Frame rate                               : 93.750 FPS (512 SPF)
Bit depth                                : 24 bits
Compression mode                         : Lossy
Stream size                              : 1.04 GiB (22%)
Language                                 : English
Default                                  : Yes
Forced                                   : No

Text #1
ID                                       : 3
Format                                   : UTF-8
Codec ID                                 : S_TEXT/UTF8
Codec ID/Info                            : UTF-8 Plain Text
Duration                                 : 1 h 31 min
Bit rate                                 : 52 b/s
Count of elements                        : 1141
Stream size                              : 35.4 KiB (0%)
Language                                 : English
Default                                  : Yes
Forced                                   : No

Text #2
ID                                       : 4
Format                                   : UTF-8
Codec ID                                 : S_TEXT/UTF8
Codec ID/Info                            : UTF-8 Plain Text
Duration                                 : 1 h 31 min
Bit rate                                 : 56 b/s
Count of elements                        : 1273
Stream size                              : 37.9 KiB (0%)
Title                                    : SDH
Language                                 : English
Default                                  : No
Forced                                   : No

Menu
00:00:00.000                             : en:Chapter 01
00:04:17.632                             : en:Chapter 02
00:11:38.948                             : en:Chapter 03
00:17:29.340                             : en:Chapter 04
00:23:31.535                             : en:Chapter 05
00:30:26.992                             : en:Chapter 06
00:36:17.342                             : en:Chapter 07
00:41:17.225                             : en:Chapter 08
00:47:25.259                             : en:Chapter 09
00:55:33.664                             : en:Chapter 10
00:59:36.239                             : en:Chapter 11
01:05:28.758                             : en:Chapter 12
01:15:50.504                             : en:Chapter 13
01:19:27.888                             : en:Chapter 14
01:25:23.201                             : en:Chapter 15
01:31:02.791                             : en:Chapter 16

c7c9c038c7c5b89d3b600eb88e60942d.png

[/url]647a6b0b7af39498c5018d3774bfbf9e.png

[/url]



                                                                                                                                                                                                        
                                                                                                                                                                                                                                                                                                                                                                                                                                                                                                                                                                                                                                                                                                                                                                                                                                                        
6b47b80d3336b469f4146773b8500df0.torrent (24.6 KB, 下载次数: 0)

回复

使用道具 举报

小黑屋|西西论坛

本网站所有资源来自网络,如无意中侵犯了您的权益,请发邮件至 [email protected],立即清除相关链接

GMT+8, 2022-6-27 05:14 , Processed in 0.132156 second(s), 17 queries .

Powered by Discuz! X3.2

© 2001-2013 Comsenz Inc.

快速回复 返回顶部 返回列表