西西论坛

 找回密码
 立即注册
搜索

肖申克的救赎/刺激1995 The.Shawshank.Redemption.1994.REMASTERED.720p.BluRay.x264- ...

[复制链接]
admin 发表于 2021-12-14 10:43:39 | 显示全部楼层 |阅读模式
肖申克的救赎/刺激1995 The.Shawshank.Redemption.1994.REMASTERED.720p.BluRay.x264-CiNEPHiL                                                                                                                                                                                                                                                                                                                                                                                                                                                                                                                                        -->
帖子完整标题:肖申克的救赎/刺激1995 The.Shawshank.Redemption.1994.REMASTERED.720p.BluRay.x264-CiNEPHiLiA 5.65GB



d880ae7f6d9ce5296cec2f9ad1a21e54.jpg



◎译  名 肖申克的救赎/刺激1995(台)/地狱诺言/月黑高飞(港)/消香克的救赎/铁窗岁月
◎片  名 The Shawshank Redemption
◎年  代 1994
◎产  地 美国
◎类  别 剧情 / 犯罪
◎语  言 英语
◎上映日期 1994-09-10(多伦多电影节) / 1994-10-14(美国)
◎豆瓣评分 9.7/10 from 2504344 users
◎豆瓣链接 
◎片  长 142分钟
◎导  演 弗兰克·德拉邦特 Frank Darabont
◎编  剧 弗兰克·德拉邦特 Frank Darabont / 斯蒂芬·金 Stephen King
◎主  演 蒂姆·罗宾斯 Tim Robbins
       摩根·弗里曼 Morgan Freeman
       鲍勃·冈顿 Bob Gunton
       威廉姆·赛德勒 William Sadler
       克兰西·布朗 Clancy Brown
       吉尔·贝罗斯 Gil Bellows
       马克·罗斯顿 Mark Rolston
       詹姆斯·惠特摩 James Whitmore
       杰弗里·德曼 Jeffrey DeMunn
       拉里·布兰登伯格 Larry Brandenburg
       尼尔·吉恩托利 Neil Giuntoli
       布赖恩·利比 Brian Libby
       大卫·普罗瓦尔 David Proval
       约瑟夫·劳格诺 Joseph Ragno
       祖德·塞克利拉 Jude Ciccolella
       保罗·麦克兰尼 Paul McCrane
       芮妮·布莱恩 Renee Blaine
       阿方索·弗里曼 Alfonso Freeman
       V·J·福斯特 V.J. Foster
       弗兰克·梅德拉诺 Frank Medrano
       马克·迈尔斯 Mack Miles
       尼尔·萨默斯 Neil Summers
       耐德·巴拉米 Ned Bellamy
       布赖恩·戴拉特 Brian Delate
       唐·麦克马纳斯 Don McManus

◎标  签 经典 | 励志 | 信念 | 自由 | 人性 | 人生 | 希望 | 美国

◎简  介

  一场谋杀案使银行家安迪(蒂姆?罗宾斯 Tim Robbins 饰)蒙冤入狱,谋杀妻子及其情人的指控将囚禁他终生。在肖申克监狱的首次现身就让监狱“大哥”瑞德(摩根?弗里曼 Morgan Freeman 饰)对他另眼相看。瑞德帮助他搞到一把石锤和一幅女明星海报,两人渐成患难 之交。很快,安迪在监狱里大显其才,担当监狱图书管理员,并利用自己的金融知识帮助监狱官避税,引起了典狱长的注意,被招致麾下帮助典狱长洗黑钱。偶然一次,他得知一名新入狱的小偷能够作证帮他洗脱谋杀罪。燃起一丝希望的安迪找到了典狱长,希望他能帮自己翻案。阴险伪善的狱长假装答应安迪,背后却派人杀死小偷,让他唯一能合法出狱的希望泯灭。沮丧的安迪并没有绝望,在一个电闪雷鸣的风雨夜,一场暗藏几十年的越狱计划让他自我救赎,重获自由!老朋友瑞德在他的鼓舞和帮助下,也勇敢地奔向自由。
  
  本片获得1995年奥斯卡10项提名,以及金球奖、土星奖等多项提名。

◎获奖情况

  第67届奥斯卡金像奖 ?(1995)
  最佳影片(提名) 妮基·马文
  最佳男主角(提名) 摩根·弗里曼
  最佳改编剧本(提名) 弗兰克·德拉邦特
  最佳摄影(提名) 罗杰·狄金斯
  最佳剪辑(提名) 理查德·弗朗西斯-布鲁斯
  最佳音响(提名) 威利·D·伯顿?/?迈克尔·赫尔比克?/?罗伯特·J·利特?/?艾略特·泰森
  最佳原创配乐(提名) 托马斯·纽曼
  
  第52届金球奖 ?(1995)
  电影类剧情片最佳男主角(提名) 摩根·弗里曼
  电影类最佳编剧(提名) 弗兰克·德拉邦特
  
  第19届日本电影学院奖 ?(1996)
  最佳外语片
  
  第20届报知映画赏 ?(1995)
  海外作品奖 弗兰克·德拉邦特
Video
ID                                       : 1
Format                                   : AVC
Format/Info                              : Advanced Video Codec
Format profile                           :
Format settings                          : CABAC / 8 Ref Frames
Format settings, CABAC                   : Yes
Format settings, Reference frames        : 8 frames
Codec ID                                 : V_MPEG4/ISO/AVC
Duration                                 : 2 h 22 min
Bit rate                                 : 4 795 kb/s
Width                                    : 1 280 pixels
Height                                   : 692 pixels
Display aspect ratio                     : 1.85:1
Frame rate mode                          : Constant
Frame rate                               : 23.976 (24000/1001/189150) FPS
Color space                              : YUV
Chroma subsampling                       : 4:2:0
Bit depth                                : 8 bits
Scan type                                : Progressive
Bits/(Pixel*Frame)                       : 0.226
Stream size                              : 4.77 GiB (84%)
Writing library                          : x264 core 164 r3075 66a5bc1
Encoding settings                        : cabac=1 / ref=8 / deblock=1:-3:-3 / analyse=0x3:0x133 / me=umh / subme=9 / psy=1 / psy_rd=1.00:0.00 / mixed_ref=1 / me_range=24 / chroma_me=1 / trellis=2 / 8x8dct=1 / cqm=0 / deadzone=21,11 / fast_pskip=0 / chroma_qp_offset=-2 / threads=22 / lookahead_threads=2 / sliced_threads=0 / nr=0 / decimate=0 / interlaced=0 / bluray_compat=0 / constrained_intra=0 / bframes=5 / b_pyramid=2 / b_adapt=2 / b_bias=0 / direct=3 / weightb=1 / open_gop=0 / weightp=2 / keyint=250 / keyint_min=23 / scenecut=40 / intra_refresh=0 / rc_lookahead=60 / rc=crf / mbtree=0 / crf=17.5 / qcomp=0.60 / qpmin=0 / qpmax=69 / qpstep=4 / vbv_maxrate=62500 / vbv_bufsize=78125 / crf_max=0.0 / nal_hrd=none / filler=0 / ip_ratio=1.40 / pb_ratio=1.30 / aq=3:0.80
Default                                  : Yes
Forced                                   : No

Audio
ID                                       : 2
Format                                   : AC-3
Format/Info                              : Audio Coding 3
Commercial name                          : Dolby Digital
Codec ID                                 : A_AC3
Duration                                 : 2 h 22 min
Bit rate mode                            : Constant
Bit rate                                 : 640 kb/s
Channel(s)                               : 6 channels
Channel layout                           : L R C LFE Ls Rs
Sampling rate                            : 48.0 kHz
Frame rate                               : 31.250 FPS (1536 SPF)
Compression mode                         : Lossy
Stream size                              : 653 MiB (11%)
Language                                 : English
Service kind                             : Complete Main
Default                                  : Yes
Forced                                   : No

Text #1
ID                                       : 3
Format                                   : PGS
Muxing mode                              : zlib
Codec ID                                 : S_HDMV/PGS
Codec ID/Info                            : Picture based subtitle format used on BDs/HD-DVDs
Duration                                 : 2 h 17 min
Bit rate                                 : 34.9 kb/s
Count of elements                        : 3556
Stream size                              : 34.3 MiB (1%)
Language                                 : English
Default                                  : No
Forced                                   : No

Text #2
ID                                       : 4
Format                                   : PGS
Muxing mode                              : zlib
Codec ID                                 : S_HDMV/PGS
Codec ID/Info                            : Picture based subtitle format used on BDs/HD-DVDs
Duration                                 : 2 h 21 min
Bit rate                                 : 22.0 kb/s
Count of elements                        : 3176
Stream size                              : 22.3 MiB (0%)
Language                                 : French
Default                                  : No
Forced                                   : No

Text #3
ID                                       : 5
Format                                   : PGS
Muxing mode                              : zlib
Codec ID                                 : S_HDMV/PGS
Codec ID/Info                            : Picture based subtitle format used on BDs/HD-DVDs
Duration                                 : 2 h 21 min
Bit rate                                 : 37.6 kb/s
Count of elements                        : 3522
Stream size                              : 37.9 MiB (1%)
Language                                 : German
Default                                  : No
Forced                                   : No

Text #4
ID                                       : 6
Format                                   : PGS
Muxing mode                              : zlib
Codec ID                                 : S_HDMV/PGS
Codec ID/Info                            : Picture based subtitle format used on BDs/HD-DVDs
Duration                                 : 2 h 17 min
Bit rate                                 : 34.5 kb/s
Count of elements                        : 3536
Stream size                              : 33.9 MiB (1%)
Language                                 : Italian
Default                                  : No
Forced                                   : No

Text #5
ID                                       : 7
Format                                   : PGS
Muxing mode                              : zlib
Codec ID                                 : S_HDMV/PGS
Codec ID/Info                            : Picture based subtitle format used on BDs/HD-DVDs
Duration                                 : 2 h 21 min
Bit rate                                 : 31.7 kb/s
Count of elements                        : 3472
Stream size                              : 32.1 MiB (1%)
Language                                 : Spanish
Default                                  : No
Forced                                   : No

Text #6
ID                                       : 8
Format                                   : PGS
Muxing mode                              : zlib
Codec ID                                 : S_HDMV/PGS
Codec ID/Info                            : Picture based subtitle format used on BDs/HD-DVDs
Duration                                 : 2 h 20 min
Bit rate                                 : 29.8 kb/s
Count of elements                        : 3020
Stream size                              : 29.9 MiB (1%)
Language                                 : Dutch
Default                                  : No
Forced                                   : No

Text #7
ID                                       : 9
Format                                   : PGS
Muxing mode                              : zlib
Codec ID                                 : S_HDMV/PGS
Codec ID/Info                            : Picture based subtitle format used on BDs/HD-DVDs
Duration                                 : 2 h 17 min
Bit rate                                 : 28.3 kb/s
Count of elements                        : 3416
Stream size                              : 27.9 MiB (0%)
Language                                 : Chinese
Default                                  : No
Forced                                   : No

Text #8
ID                                       : 10
Format                                   : PGS
Muxing mode                              : zlib
Codec ID                                 : S_HDMV/PGS
Codec ID/Info                            : Picture based subtitle format used on BDs/HD-DVDs
Duration                                 : 2 h 17 min
Bit rate                                 : 28.5 kb/s
Count of elements                        : 3416
Stream size                              : 28.1 MiB (0%)
Language                                 : Chinese
Default                                  : No
Forced                                   : No

Text #9
ID                                       : 11
Format                                   : PGS
Muxing mode                              : zlib
Codec ID                                 : S_HDMV/PGS
Codec ID/Info                            : Picture based subtitle format used on BDs/HD-DVDs
Duration                                 : 2 h 17 min
Bit rate                                 : 24.0 kb/s
Count of elements                        : 3444
Stream size                              : 23.6 MiB (0%)
Language                                 : Korean
Default                                  : No
Forced                                   : No

Text #10
ID                                       : 12
Format                                   : PGS
Muxing mode                              : zlib
Codec ID                                 : S_HDMV/PGS
Codec ID/Info                            : Picture based subtitle format used on BDs/HD-DVDs
Duration                                 : 2 h 17 min
Bit rate                                 : 29.6 kb/s
Count of elements                        : 3390
Stream size                              : 29.1 MiB (1%)
Language                                 : Spanish
Default                                  : No
Forced                                   : No

Text #11
ID                                       : 13
Format                                   : PGS
Muxing mode                              : zlib
Codec ID                                 : S_HDMV/PGS
Codec ID/Info                            : Picture based subtitle format used on BDs/HD-DVDs
Duration                                 : 2 h 21 min
Bit rate                                 : 28.8 kb/s
Count of elements                        : 3412
Stream size                              : 29.1 MiB (1%)
Language                                 : Czech
Default                                  : No
Forced                                   : No

Text #12
ID                                       : 14
Format                                   : PGS
Muxing mode                              : zlib
Codec ID                                 : S_HDMV/PGS
Codec ID/Info                            : Picture based subtitle format used on BDs/HD-DVDs
Duration                                 : 2 h 21 min
Bit rate                                 : 34.6 kb/s
Count of elements                        : 3724
Stream size                              : 35.1 MiB (1%)
Language                                 : Danish
Default                                  : No
Forced                                   : No

Text #13
ID                                       : 15
Format                                   : PGS
Muxing mode                              : zlib
Codec ID                                 : S_HDMV/PGS
Codec ID/Info                            : Picture based subtitle format used on BDs/HD-DVDs
Duration                                 : 2 h 20 min
Bit rate                                 : 30.7 kb/s
Count of elements                        : 3276
Stream size                              : 30.8 MiB (1%)
Language                                 : Finnish
Default                                  : No
Forced                                   : No

Text #14
ID                                       : 16
Format                                   : PGS
Muxing mode                              : zlib
Codec ID                                 : S_HDMV/PGS
Codec ID/Info                            : Picture based subtitle format used on BDs/HD-DVDs
Duration                                 : 2 h 20 min
Bit rate                                 : 29.7 kb/s
Count of elements                        : 3710
Stream size                              : 29.8 MiB (1%)
Language                                 : Norwegian
Default                                  : No
Forced                                   : No

Text #15
ID                                       : 17
Format                                   : PGS
Muxing mode                              : zlib
Codec ID                                 : S_HDMV/PGS
Codec ID/Info                            : Picture based subtitle format used on BDs/HD-DVDs
Duration                                 : 2 h 16 min
Bit rate                                 : 35.2 kb/s
Count of elements                        : 3730
Stream size                              : 34.3 MiB (1%)
Language                                 : Polish
Default                                  : No
Forced                                   : No

Text #16
ID                                       : 18
Format                                   : PGS
Muxing mode                              : zlib
Codec ID                                 : S_HDMV/PGS
Codec ID/Info                            : Picture based subtitle format used on BDs/HD-DVDs
Duration                                 : 2 h 20 min
Bit rate                                 : 32.0 kb/s
Count of elements                        : 3410
Stream size                              : 32.1 MiB (1%)
Language                                 : Romanian
Default                                  : No
Forced                                   : No

Text #17
ID                                       : 19
Format                                   : PGS
Muxing mode                              : zlib
Codec ID                                 : S_HDMV/PGS
Codec ID/Info                            : Picture based subtitle format used on BDs/HD-DVDs
Duration                                 : 2 h 20 min
Bit rate                                 : 33.0 kb/s
Count of elements                        : 3408
Stream size                              : 33.1 MiB (1%)
Language                                 : Swedish
Default                                  : No
Forced                                   : No

Text #18
ID                                       : 20
Format                                   : UTF-8
Codec ID                                 : S_TEXT/UTF8
Codec ID/Info                            : UTF-8 Plain Text
Duration                                 : 2 h 17 min
Bit rate                                 : 61 b/s
Count of elements                        : 1738
Stream size                              : 61.4 KiB (0%)
Language                                 : English
Default                                  : No
Forced                                   : No

Text #19
ID                                       : 21
Format                                   : UTF-8
Codec ID                                 : S_TEXT/UTF8
Codec ID/Info                            : UTF-8 Plain Text
Duration                                 : 2 h 17 min
Bit rate                                 : 62 b/s
Count of elements                        : 1778
Stream size                              : 63.4 KiB (0%)
Default                                  : No
Forced                                   : No

Menu
00:00:00.000                             : :Chapter 01
00:04:40.155                             : :Chapter 02
00:06:38.732                             : :Chapter 03
00:10:07.357                             : :Chapter 04
00:13:46.117                             : :Chapter 05
00:17:59.954                             : :Chapter 06
00:23:43.297                             : :Chapter 07
00:29:01.114                             : :Chapter 08
00:33:32.886                             : :Chapter 09
00:38:50.954                             : :Chapter 10
00:41:06.297                             : :Chapter 11
00:42:40.683                             : :Chapter 12
00:46:14.438                             : :Chapter 13
00:48:14.475                             : :Chapter 14
00:51:21.578                             : :Chapter 15
00:57:19.144                             : :Chapter 16
01:00:27.499                             : :Chapter 17
01:05:45.859                             : :Chapter 18
01:07:16.699                             : :Chapter 19
01:11:03.718                             : :Chapter 20
01:13:53.262                             : :Chapter 21
01:15:55.593                             : :Chapter 22
01:21:08.280                             : :Chapter 23
01:23:58.992                             : :Chapter 24
01:29:26.319                             : :Chapter 25
01:32:10.525                             : :Chapter 26
01:35:37.190                             : :Chapter 27
01:38:28.611                             : :Chapter 28
01:40:38.407                             : :Chapter 29
01:47:23.187                             : :Chapter 30
01:50:45.430                             : :Chapter 31
01:54:31.156                             : :Chapter 32
02:00:35.562                             : :Chapter 33
02:04:09.359                             : :Chapter 34
02:05:51.127                             : :Chapter 35
02:08:25.865                             : :Chapter 36
02:10:13.556                             : :Chapter 37
02:12:56.177                             : :Chapter 38
02:16:27.763                             : :Chapter 39
02:18:07.613                             : :Chapter 40

beef9841780dc7f9add2912ca007c902.jpg





                                                                                                                                                                                                        
                                                                                                                                                                                                                                                                                                                                                                                                                                                                                                                                                                                                                                                                                                                                                                                                                                                        
8cfb3f907457e724553b674e553c919e.torrent (14.93 KB, 下载次数: 0)

回复

使用道具 举报

小黑屋|西西论坛

本网站所有资源来自网络,如无意中侵犯了您的权益,请发邮件至 [email protected],立即清除相关链接

GMT+8, 2022-6-27 03:58 , Processed in 0.129488 second(s), 17 queries .

Powered by Discuz! X3.2

© 2001-2013 Comsenz Inc.

快速回复 返回顶部 返回列表