西西论坛

 找回密码
 立即注册
搜索

拯救甜甜圈:时空大营救 Extinct.2021.720p.BluRay.x264-RCDiVX 2.50GB

[复制链接]
admin 发表于 2021-11-22 17:41:22 | 显示全部楼层 |阅读模式
拯救甜甜圈:时空大营救 Extinct.2021.720p.BluRay.x264-RCDiVX 2.50GB                                                                                                                                                                                                                                                                                                                                                                                                                                                                                                                                        -->
帖子完整标题:拯救甜甜圈:时空大营救 Extinct.2021.720p.BluRay.x264-RCDiVX 2.50GB



90af427486b377d640836b48a41f696c.jpg



◎译  名 Extinct/绝种动物大冒险
◎片  名 拯救甜甜圈:时空大营救
◎年  代 2021
◎产  地 中国大陆,美国
◎类  别 喜剧 / 动画 / 冒险
◎语  言 汉语普通话,英语
◎上映日期 2021-10-03(中国大陆)
◎豆瓣评分 6.2/10 from 1906 users
◎豆瓣链接 
◎片  长 84分钟
◎导  演 大卫·西尔弗曼 David Silverman / 雷蒙德·S·佩尔西 Raymond S. Persi
◎编  剧 乔尔·H·科恩 Joel H. Cohen / 约翰·弗林克 John Frink / 罗伯·拉泽布尼克 Rob LaZebnik
◎主  演 宝木中阳 Ming Song
       朱蓉蓉 Rongrong Zhu
       姜广涛 Guangtao Jiang
       马正阳 Zhengyang Ma
       亚当·德维尼 Adam DeVine
       蕾切尔·布鲁姆 Rachel Bloom
       郑肯 Ken Jeong
       莎姬·贝兹 Zazie Beetz
       吉姆·杰弗里斯 Jim Jefferies
       凯瑟琳·欧哈拉 Catherine O'Hara
       瑞吉·沃兹 Reggie Watts
       艾利克斯·布诺斯町 Alex Borstein
       茱莉亚·泰勒·罗斯 Julia Taylor Ross
       史蒂夫·青木 Steve Aoki
       玛莉亚·班福德 Maria Bamford
       大卫·西尔弗曼 David Silverman
       雷蒙德·S·佩尔西 Raymond S. Persi

◎标  签 动画 | 儿童 | 喜剧 | 搞笑 | 奇幻 | 冒险 | 2021 | 时空

◎简  介

  在19世纪的一座小岛上,生活着一群叫菲拉萌的甜甜圈形的小动物。其中有两只菲拉萌意外地闯入时光穿梭的入口,来到现代的中国上海,在那里,他们发现菲拉萌已经灭绝!为了挽救种族的灭绝命运,他们必须借助一只可爱狗狗的帮助,回到过去,拯救他们的物种……
Video
ID                                       : 1
Format                                   : AVC
Format/Info                              : Advanced Video Codec
Format profile                           :
Format settings                          : CABAC / 9 Ref Frames
Format settings, CABAC                   : Yes
Format settings, Reference frames        : 9 frames
Codec ID                                 : V_MPEG4/ISO/AVC
Duration                                 : 1 h 24 min
Bit rate                                 : 3 755 kb/s
Width                                    : 1 280 pixels
Height                                   : 690 pixels
Display aspect ratio                     : 1.85:1
Frame rate mode                          : Constant
Frame rate                               : 24.000 FPS
Color space                              : YUV
Chroma subsampling                       : 4:2:0
Bit depth                                : 8 bits
Scan type                                : Progressive
Bits/(Pixel*Frame)                       : 0.177
Stream size                              : 2.21 GiB (88%)
Writing library                          : x264 core 164 r3075 66a5bc1
Encoding settings                        : cabac=1 / ref=9 / deblock=1:1:1 / analyse=0x3:0x133 / me=umh / subme=9 / psy=1 / psy_rd=0.40:0.00 / mixed_ref=1 / me_range=16 / chroma_me=1 / trellis=2 / 8x8dct=1 / cqm=0 / deadzone=21,11 / fast_pskip=1 / chroma_qp_offset=-2 / threads=22 / lookahead_threads=2 / sliced_threads=0 / nr=0 / decimate=1 / interlaced=0 / bluray_compat=0 / constrained_intra=0 / bframes=5 / b_pyramid=2 / b_adapt=2 / b_bias=0 / direct=3 / weightb=1 / open_gop=0 / weightp=2 / keyint=250 / keyint_min=24 / scenecut=40 / intra_refresh=0 / rc_lookahead=60 / rc=crf / mbtree=1 / crf=14.5 / qcomp=0.60 / qpmin=0 / qpmax=69 / qpstep=4 / ip_ratio=1.40 / aq=1:0.60
Default                                  : Yes
Forced                                   : No

Audio
ID                                       : 2
Format                                   : AC-3
Format/Info                              : Audio Coding 3
Commercial name                          : Dolby Digital
Codec ID                                 : A_AC3
Duration                                 : 1 h 24 min
Bit rate mode                            : Constant
Bit rate                                 : 448 kb/s
Channel(s)                               : 6 channels
Channel layout                           : L R C LFE Ls Rs
Sampling rate                            : 48.0 kHz
Frame rate                               : 31.250 FPS (1536 SPF)
Compression mode                         : Lossy
Stream size                              : 270 MiB (11%)
Language                                 : English
Service kind                             : Complete Main
Default                                  : Yes
Forced                                   : No

Text #1
ID                                       : 3
Format                                   : PGS
Muxing mode                              : zlib
Codec ID                                 : S_HDMV/PGS
Codec ID/Info                            : Picture based subtitle format used on BDs/HD-DVDs
Duration                                 : 1 h 23 min
Bit rate                                 : 24.2 kb/s
Count of elements                        : 1718
Stream size                              : 14.4 MiB (1%)
Title                                    : Danish
Language                                 : Danish
Default                                  : No
Forced                                   : No

Text #2
ID                                       : 4
Format                                   : PGS
Muxing mode                              : zlib
Codec ID                                 : S_HDMV/PGS
Codec ID/Info                            : Picture based subtitle format used on BDs/HD-DVDs
Duration                                 : 1 h 23 min
Bit rate                                 : 25.2 kb/s
Count of elements                        : 1720
Stream size                              : 15.0 MiB (1%)
Title                                    : Swedish
Language                                 : Swedish
Default                                  : No
Forced                                   : No

Text #3
ID                                       : 5
Format                                   : PGS
Muxing mode                              : zlib
Codec ID                                 : S_HDMV/PGS
Codec ID/Info                            : Picture based subtitle format used on BDs/HD-DVDs
Duration                                 : 1 h 23 min
Bit rate                                 : 23.3 kb/s
Count of elements                        : 1718
Stream size                              : 13.8 MiB (1%)
Title                                    : Norwegian
Language                                 : Norwegian
Default                                  : No
Forced                                   : No

Text #4
ID                                       : 6
Format                                   : PGS
Muxing mode                              : zlib
Codec ID                                 : S_HDMV/PGS
Codec ID/Info                            : Picture based subtitle format used on BDs/HD-DVDs
Duration                                 : 1 h 23 min
Bit rate                                 : 24.8 kb/s
Count of elements                        : 1718
Stream size                              : 14.8 MiB (1%)
Title                                    : Finnish
Language                                 : Finnish
Default                                  : No
Forced                                   : No

Text #5
ID                                       : 7
Format                                   : PGS
Muxing mode                              : zlib
Codec ID                                 : S_HDMV/PGS
Codec ID/Info                            : Picture based subtitle format used on BDs/HD-DVDs
Duration                                 : 125 ms
Bit rate                                 : 155 kb/s
Count of elements                        : 2
Stream size                              : 2.37 KiB (0%)
Title                                    : English (Empty)
Language                                 : English
Default                                  : No
Forced                                   : No

Menu
00:00:00.000                             : en:Chapter 01
00:15:43.000                             : en:Chapter 02
00:30:47.000                             : en:Chapter 03
00:43:49.000                             : en:Chapter 04
00:59:09.000                             : en:Chapter 05
01:12:11.000                             : en:Chapter 06

44717321772a991fe099994cdc0865f2.jpg





                                                                                                                                                                                                        
                                                                                                                                                                                                                                                                                                                                                                                                                                                                                                                                                                                                                                                                                                                                                                                                                                                        
86caca77cdba8e269c7aad5ae7cff6b7.torrent (25.7 KB, 下载次数: 0)

回复

使用道具 举报

小黑屋|西西论坛

本网站所有资源来自网络,如无意中侵犯了您的权益,请发邮件至 [email protected],立即清除相关链接

GMT+8, 2021-12-3 16:04 , Processed in 0.125549 second(s), 17 queries .

Powered by Discuz! X3.2

© 2001-2013 Comsenz Inc.

快速回复 返回顶部 返回列表