西西论坛

 找回密码
 立即注册
搜索

紫色女郎 Ms.Purple.2019.720p.BluRay.x264-BiPOLAR 1.97GB

[复制链接]
admin 发表于 2021-11-19 09:38:14 | 显示全部楼层 |阅读模式
紫色女郎 Ms.Purple.2019.720p.BluRay.x264-BiPOLAR 1.97GB                                                                                                                                                                                                                                                                                                                                                                                                                                                                                                                                        -->
帖子完整标题:紫色女郎 Ms.Purple.2019.720p.BluRay.x264-BiPOLAR 1.97GB



33595b75371d4fa9ac9bfcb69f87dbb1.jpg



◎译  名 紫色女郎/Miss Purple
◎片  名 Ms. Purple
◎年  代 2019
◎产  地 美国
◎类  别 剧情
◎语  言 英语
◎上映日期 2019-01-25(圣丹斯电影节) / 2019-09-06(美国)
◎豆瓣评分 5.5/10 from 513 users
◎豆瓣链接 
◎片  长 88分钟(圣丹斯电影节)
◎导  演 全知泰 Justin Chon
◎编  剧 全知泰 Justin Chon
◎主  演 杰克·崔 Jake Choi Reel
       阿尔玛·马丁内斯 Alma Martinez
       金俊成 Jun-seong Kim
       Jasmine Reid Jasmine Reid

◎标  签 美国 | 剧情 | 2019 | 韩国 | 移民 | 美国电影 | 圣丹斯电影节 | 亲情

◎简  介

  一位在韩国城做卡拉ok女招待的年轻女子在父亲生命的最后几天与她疏远的兄弟重逢。
  
  卡西(Kasie)住在洛杉矶的韩国城(Koreatown),她是一名卡拉ok女招待,靠酒醉的男人陪伴赚钱。当她父亲的临终关怀护士离职后,她与分居的弟弟凯里重新联系,迫使他们进入了一个强烈的自我反省时期,因为抚养他们长大的单身父亲即将离世。

◎获奖情况

  第35届圣丹斯电影节 ?(2019)
  评审团大奖剧情片(提名) 全知泰
Video
ID                                       : 1
Format                                   : AVC
Format/Info                              : Advanced Video Codec
Format profile                           :
Format settings                          : CABAC / 13 Ref Frames
Format settings, CABAC                   : Yes
Format settings, Reference frames        : 13 frames
Codec ID                                 : V_MPEG4/ISO/AVC
Duration                                 : 1 h 27 min
Bit rate                                 : 2 565 kb/s
Width                                    : 1 280 pixels
Height                                   : 480 pixels
Display aspect ratio                     : 2.667
Frame rate mode                          : Constant
Frame rate                               : 23.976 (24000/1001/189150) FPS
Color space                              : YUV
Chroma subsampling                       : 4:2:0
Bit depth                                : 8 bits
Scan type                                : Progressive
Bits/(Pixel*Frame)                       : 0.174
Stream size                              : 1.56 GiB (80%)
Writing library                          : x264 core 164 r3075 66a5bc1
Encoding settings                        : cabac=1 / ref=13 / deblock=1:-3:-3 / analyse=0x3:0x133 / me=umh / subme=10 / psy=1 / psy_rd=1.00:0.15 / mixed_ref=1 / me_range=24 / chroma_me=1 / trellis=2 / 8x8dct=1 / cqm=0 / deadzone=21,11 / fast_pskip=1 / chroma_qp_offset=-3 / threads=15 / lookahead_threads=2 / sliced_threads=0 / nr=0 / decimate=1 / interlaced=0 / bluray_compat=0 / constrained_intra=0 / bframes=8 / b_pyramid=2 / b_adapt=2 / b_bias=0 / direct=3 / weightb=1 / open_gop=0 / weightp=2 / keyint=250 / keyint_min=23 / scenecut=40 / intra_refresh=0 / rc_lookahead=60 / rc=crf / mbtree=1 / crf=16.0 / qcomp=0.60 / qpmin=0 / qpmax=69 / qpstep=4 / ip_ratio=1.40 / aq=3:0.60
Language                                 : English
Default                                  : Yes
Forced                                   : No
Color range                              : Limited
Matrix coefficients                      : BT.709

Audio
ID                                       : 2
Format                                   : AC-3
Format/Info                              : Audio Coding 3
Commercial name                          : Dolby Digital
Codec ID                                 : A_AC3
Duration                                 : 1 h 27 min
Bit rate mode                            : Constant
Bit rate                                 : 640 kb/s
Channel(s)                               : 6 channels
Channel layout                           : L R C LFE Ls Rs
Sampling rate                            : 48.0 kHz
Frame rate                               : 31.250 FPS (1536 SPF)
Compression mode                         : Lossy
Stream size                              : 400 MiB (20%)
Language                                 : English
Service kind                             : Complete Main
Default                                  : Yes
Forced                                   : No

Text #1
ID                                       : 3
Format                                   : UTF-8
Codec ID                                 : S_TEXT/UTF8
Codec ID/Info                            : UTF-8 Plain Text
Duration                                 : 1 h 14 min
Bit rate                                 : 3 b/s
Count of elements                        : 66
Stream size                              : 1.99 KiB (0%)
Title                                    : English forced
Language                                 : English
Default                                  : Yes
Forced                                   : Yes

Text #2
ID                                       : 4
Format                                   : PGS
Muxing mode                              : zlib
Codec ID                                 : S_HDMV/PGS
Codec ID/Info                            : Picture based subtitle format used on BDs/HD-DVDs
Duration                                 : 1 h 14 min
Bit rate                                 : 1 612 b/s
Count of elements                        : 132
Stream size                              : 878 KiB (0%)
Title                                    : English forced
Language                                 : English
Default                                  : No
Forced                                   : No

Text #3
ID                                       : 5
Format                                   : UTF-8
Codec ID                                 : S_TEXT/UTF8
Codec ID/Info                            : UTF-8 Plain Text
Duration                                 : 1 h 17 min
Bit rate                                 : 35 b/s
Count of elements                        : 671
Stream size                              : 20.2 KiB (0%)
Title                                    : English
Language                                 : English
Default                                  : No
Forced                                   : No

Text #4
ID                                       : 6
Format                                   : UTF-8
Codec ID                                 : S_TEXT/UTF8
Codec ID/Info                            : UTF-8 Plain Text
Duration                                 : 1 h 21 min
Bit rate                                 : 40 b/s
Count of elements                        : 826
Stream size                              : 24.4 KiB (0%)
Title                                    : English SDH
Language                                 : English
Default                                  : No
Forced                                   : No

Text #5
ID                                       : 7
Format                                   : PGS
Muxing mode                              : zlib
Codec ID                                 : S_HDMV/PGS
Codec ID/Info                            : Picture based subtitle format used on BDs/HD-DVDs
Duration                                 : 1 h 21 min
Bit rate                                 : 17.7 kb/s
Count of elements                        : 1652
Stream size                              : 10.4 MiB (1%)
Title                                    : English SDH
Language                                 : English
Default                                  : No
Forced                                   : No

Menu
00:00:00.000                             : en:Chapter 01
00:04:09.082                             : en:Chapter 02
00:10:34.091                             : en:Chapter 03
00:14:39.879                             : en:Chapter 04
00:19:50.189                             : en:Chapter 05
00:26:20.495                             : en:Chapter 06
00:32:11.638                             : en:Chapter 07
00:37:06.933                             : en:Chapter 08
00:43:55.090                             : en:Chapter 09
00:49:30.384                             : en:Chapter 10
00:54:18.380                             : en:Chapter 11
00:58:50.109                             : en:Chapter 12
01:04:15.142                             : en:Chapter 13
01:06:48.546                             : en:Chapter 14
01:08:19.929                             : en:Chapter 15
01:13:46.630                             : en:Chapter 16
01:19:04.489                             : en:Chapter 17
01:22:25.190                             : en:Chapter 18
01:27:20.026                             : en:Chapter 19

0f55016570c79b8fbe4e6005f87d82aa.jpg





                                                                                                                                                                                                        
                                                                                                                                                                                                                                                                                                                                                                                                                                                                                                                                                                                                                                                                                                                                                                                                                                                        
6c2bbd75c75df7048cfd499b9463f484.torrent (20.4 KB, 下载次数: 0)

回复

使用道具 举报

小黑屋|西西论坛

本网站所有资源来自网络,如无意中侵犯了您的权益,请发邮件至 [email protected],立即清除相关链接

GMT+8, 2021-12-3 14:29 , Processed in 0.085638 second(s), 17 queries .

Powered by Discuz! X3.2

© 2001-2013 Comsenz Inc.

快速回复 返回顶部 返回列表