西西论坛

 找回密码
 立即注册
搜索

声音控制/智能房 Held.2020.720p.BluRay.x264-UNVEiL 3.36GB

[复制链接]
admin 发表于 2021-11-13 09:31:56 | 显示全部楼层 |阅读模式
声音控制/智能房 Held.2020.720p.BluRay.x264-UNVEiL 3.36GB                                                                                                                                                                                                                                                                                                                                                                                                                                                                                                                                        -->
帖子完整标题:声音控制/智能房 Held.2020.720p.BluRay.x264-UNVEiL 3.36GB



1281ffd9aff1b50a7694ea30a3f20dba.jpg



◎译  名 声音控制/智能房/智能杀机/逃出智能屋
◎片  名 Held
◎年  代 2020
◎产  地 美国
◎类  别 悬疑 / 惊悚 / 恐怖
◎语  言 英语
◎上映日期 2020-10-21(Frightfest)
◎豆瓣评分 5.6/10 from 675 users
◎豆瓣链接 
◎片  长 94分钟
◎导  演 特拉维斯·克拉夫 Travis Cluff / 克里斯·罗夫因 Chris Lofing
◎主  演 巴特·约翰逊 Bart Johnson
       雷兹·肯普顿 Rez Kempton
       吉尔·奥布雷 Jill Awbrey
       Megan Scortino Megan Scortino

◎标  签 惊悚 | 悬疑 | 美国 | 犯罪 | 恐怖 | 家庭 | 2020 | 美国电影

◎简  介

  A couple's ailing marriage is put to the test when they are held hostage in an isolated vacation rental by an unseen Voice that commands their every move.
Video
ID                                       : 1
Format                                   : AVC
Format/Info                              : Advanced Video Codec
Format profile                           : [email protected]
Format settings                          : CABAC / 8 Ref Frames
Format settings, CABAC                   : Yes
Format settings, Reference frames        : 8 frames
Codec ID                                 : V_MPEG4/ISO/AVC
Duration                                 : 1 h 33 min
Bit rate                                 : 4 418 kb/s
Width                                    : 1 280 pixels
Height                                   : 514 pixels
Display aspect ratio                     : 2.490
Frame rate mode                          : Constant
Frame rate                               : 23.976 (24000/1001/189150) FPS
Color space                              : YUV
Chroma subsampling                       : 4:2:0
Bit depth                                : 8 bits
Scan type                                : Progressive
Bits/(Pixel*Frame)                       : 0.280
Stream size                              : 2.90 GiB (87%)
Writing library                          : x264 core 164 r3075 66a5bc1
Encoding settings                        : cabac=1 / ref=8 / deblock=1:-3:-3 / analyse=0x3:0x133 / me=umh / subme=9 / psy=1 / psy_rd=1.00:0.00 / mixed_ref=1 / me_range=16 / chroma_me=1 / trellis=2 / 8x8dct=1 / cqm=0 / deadzone=21,11 / fast_pskip=0 / chroma_qp_offset=-2 / threads=16 / lookahead_threads=1 / sliced_threads=0 / nr=0 / decimate=1 / interlaced=0 / bluray_compat=0 / constrained_intra=0 / bframes=3 / b_pyramid=2 / b_adapt=2 / b_bias=0 / direct=3 / weightb=1 / open_gop=0 / weightp=2 / keyint=250 / keyint_min=23 / scenecut=40 / intra_refresh=0 / rc_lookahead=60 / rc=crf / mbtree=1 / crf=17.0 / qcomp=0.60 / qpmin=0 / qpmax=69 / qpstep=4 / ip_ratio=1.40 / aq=1:1.00
Language                                 : English
Default                                  : Yes
Forced                                   : No

Audio
ID                                       : 2
Format                                   : AC-3
Format/Info                              : Audio Coding 3
Commercial name                          : Dolby Digital
Codec ID                                 : A_AC3
Duration                                 : 1 h 33 min
Bit rate mode                            : Constant
Bit rate                                 : 640 kb/s
Channel(s)                               : 6 channels
Channel layout                           : L R C LFE Ls Rs
Sampling rate                            : 48.0 kHz
Frame rate                               : 31.250 FPS (1536 SPF)
Compression mode                         : Lossy
Stream size                              : 429 MiB (13%)
Language                                 : English
Service kind                             : Complete Main
Default                                  : Yes
Forced                                   : No

Text #1
ID                                       : 3
Format                                   : PGS
Muxing mode                              : zlib
Codec ID                                 : S_HDMV/PGS
Codec ID/Info                            : Picture based subtitle format used on BDs/HD-DVDs
Duration                                 : 1 h 30 min
Bit rate                                 : 16.5 kb/s
Count of elements                        : 1466
Stream size                              : 10.6 MiB (0%)
Language                                 : German
Default                                  : No
Forced                                   : No

Text #2
ID                                       : 4
Format                                   : PGS
Muxing mode                              : zlib
Codec ID                                 : S_HDMV/PGS
Codec ID/Info                            : Picture based subtitle format used on BDs/HD-DVDs
Duration                                 : 1 h 8 min
Bit rate                                 : 545 b/s
Count of elements                        : 38
Stream size                              : 276 KiB (0%)
Title                                    : forced
Language                                 : German
Default                                  : No
Forced                                   : No

Menu
00:00:00.000                             : en:Chapter 01
00:08:55.285                             : en:Chapter 02
00:19:02.058                             : en:Chapter 03
00:25:27.443                             : en:Chapter 04
00:34:09.673                             : en:Chapter 05
00:41:13.304                             : en:Chapter 06
00:50:26.982                             : en:Chapter 07
00:57:04.921                             : en:Chapter 08
01:03:50.618                             : en:Chapter 09
01:15:31.527                             : en:Chapter 10
01:24:04.373                             : en:Chapter 11
01:30:31.843                             : en:Chapter 12

68d5142eb1e115c856d913f4b9b6595f.jpg





                                                                                                                                                                                                        
                                                                                                                                                                                                                                                                                                                                                                                                                                                                                                                                                                                                                                                                                                                                                                                                                                                        
37eff625faa8a64041160ea7930caa07.torrent (17.66 KB, 下载次数: 0)

回复

使用道具 举报

小黑屋|西西论坛

本网站所有资源来自网络,如无意中侵犯了您的权益,请发邮件至 [email protected],立即清除相关链接

GMT+8, 2021-12-3 14:39 , Processed in 0.084778 second(s), 17 queries .

Powered by Discuz! X3.2

© 2001-2013 Comsenz Inc.

快速回复 返回顶部 返回列表