西西论坛

 找回密码
 立即注册
搜索

杀戮小队 Kill.Squad.1982.GRINDHOUSE.VERSION.720p.BluRay.x264-WATCHABLE 4.66GB .. ...

[复制链接]
admin 发表于 2021-11-12 09:31:33 | 显示全部楼层 |阅读模式
杀戮小队 Kill.Squad.1982.GRINDHOUSE.VERSION.720p.BluRay.x264-WATCHABLE 4.66GB                                                                                                                                                                                                                                                                                                                                                                                                                                                                                                                                        -->
帖子完整标题:杀戮小队 Kill.Squad.1982.GRINDHOUSE.VERSION.720p.BluRay.x264-WATCHABLE 4.66GB



c4f38af99cda45b070fba12182903036.jpg



◎译  名 杀戮小队/Code of Honor
◎片  名 Kill Squad
◎年  代 1982
◎产  地 美国,菲律宾
◎类  别 剧情 / 动作
◎语  言 英语
◎上映日期 1982
◎豆瓣评分 /10 from 0 users
◎豆瓣链接 
◎片  长 USA: 85 分钟
◎导  演 Patrick G. Donahue Patrick G. Donahue
◎编  剧 Patrick G. Donahue Patrick G. Donahue
◎主  演 罗素·约翰逊 Russell Johnson
       卡梅隆·米切尔 Cameron Mitchell
       Jeff Risk Jeff Risk
       Patrick G. Donahue Patrick G. Donahue
       娜塔莉·蔡格 Nathalie Zeiger

◎标  签 动作 | 美国 | 1982 | 1080P

◎简  介

  暂无相关剧情介绍
Video
ID                                       : 1
Format                                   : AVC
Format/Info                              : Advanced Video Codec
Format profile                           : [email protected]
Format settings                          : CABAC / 8 Ref Frames
Format settings, CABAC                   : Yes
Format settings, Reference frames        : 8 frames
Codec ID                                 : V_MPEG4/ISO/AVC
Duration                                 : 1 h 24 min
Bit rate                                 : 7 489 kb/s
Width                                    : 1 280 pixels
Height                                   : 694 pixels
Display aspect ratio                     : 16:9
Original display aspect ratio            : 1.85:1
Frame rate mode                          : Constant
Frame rate                               : 23.976 (24000/1001/189150) FPS
Color space                              : YUV
Chroma subsampling                       : 4:2:0
Bit depth                                : 8 bits
Scan type                                : Progressive
Bits/(Pixel*Frame)                       : 0.352
Stream size                              : 4.42 GiB (95%)
Writing library                          : x264 core 164 r3075 66a5bc1
Encoding settings                        : cabac=1 / ref=8 / deblock=1:0:0 / analyse=0x3:0x133 / me=umh / subme=9 / psy=1 / psy_rd=1.00:0.00 / mixed_ref=1 / me_range=16 / chroma_me=1 / trellis=2 / 8x8dct=1 / cqm=0 / deadzone=21,11 / fast_pskip=1 / chroma_qp_offset=-2 / threads=12 / lookahead_threads=1 / sliced_threads=0 / nr=0 / decimate=1 / interlaced=0 / bluray_compat=0 / constrained_intra=0 / bframes=3 / b_pyramid=2 / b_adapt=2 / b_bias=0 / direct=3 / weightb=1 / open_gop=0 / weightp=2 / keyint=250 / keyint_min=23 / scenecut=40 / intra_refresh=0 / rc_lookahead=60 / rc=crf / mbtree=1 / crf=17.5 / qcomp=0.60 / qpmin=0 / qpmax=69 / qpstep=4 / ip_ratio=1.40 / aq=1:1.00
Default                                  : Yes
Forced                                   : No
Color range                              : Limited
Color primaries                          : BT.709
Transfer characteristics                 : BT.709
Matrix coefficients                      : BT.709

Audio
ID                                       : 2
Format                                   : FLAC
Format/Info                              : Free Lossless Audio Codec
Codec ID                                 : A_FLAC
Duration                                 : 1 h 24 min
Bit rate mode                            : Variable
Bit rate                                 : 380 kb/s
Channel(s)                               : 2 channels
Channel layout                           : L R
Sampling rate                            : 48.0 kHz
Frame rate                               : 10.417 FPS (4608 SPF)
Bit depth                                : 16 bits
Compression mode                         : Lossless
Stream size                              : 230 MiB (5%)
Title                                    : English
Writing library                          : Lavf59.0.101
Language                                 : English
Default                                  : Yes
Forced                                   : No

Text #1
ID                                       : 3
Format                                   : UTF-8
Codec ID                                 : S_TEXT/UTF8
Codec ID/Info                            : UTF-8 Plain Text
Duration                                 : 1 h 19 min
Bit rate                                 : 37 b/s
Count of elements                        : 636
Stream size                              : 22.0 KiB (0%)
Title                                    : English Full SRT
Language                                 : English
Default                                  : No
Forced                                   : No

Text #2
ID                                       : 4
Format                                   : PGS
Muxing mode                              : zlib
Codec ID                                 : S_HDMV/PGS
Codec ID/Info                            : Picture based subtitle format used on BDs/HD-DVDs
Duration                                 : 1 h 19 min
Bit rate                                 : 24.7 kb/s
Count of elements                        : 1237
Stream size                              : 14.1 MiB (0%)
Title                                    : English Full PGS
Language                                 : English
Default                                  : No
Forced                                   : No

Text #3
ID                                       : 5
Format                                   : PGS
Muxing mode                              : zlib
Codec ID                                 : S_HDMV/PGS
Codec ID/Info                            : Picture based subtitle format used on BDs/HD-DVDs
Duration                                 : 1 h 19 min
Bit rate                                 : 29.7 kb/s
Count of elements                        : 1264
Stream size                              : 16.9 MiB (0%)
Title                                    : German Full PGS
Language                                 : German
Default                                  : No
Forced                                   : No

Text #4
ID                                       : 6
Format                                   : PGS
Muxing mode                              : zlib
Codec ID                                 : S_HDMV/PGS
Codec ID/Info                            : Picture based subtitle format used on BDs/HD-DVDs
Duration                                 : 1 h 19 min
Bit rate                                 : 32.5 kb/s
Count of elements                        : 1309
Stream size                              : 18.5 MiB (0%)
Title                                    : Schnotterdeutsch Full PGS
Language                                 : German
Default                                  : No
Forced                                   : No

Menu
00:00:00.000                             : Chapter 01
00:07:07.927                             : Chapter 02
00:10:58.157                             : Chapter 03
00:13:13.418                             : Chapter 04
00:18:04.917                             : Chapter 05
00:19:50.022                             : Chapter 06
00:23:31.785                             : Chapter 07
00:26:16.533                             : Chapter 08
00:28:47.142                             : Chapter 09
00:32:02.003                             : Chapter 10
00:36:39.364                             : Chapter 11
00:41:21.187                             : Chapter 12
00:53:52.896                             : Chapter 13
00:57:01.251                             : Chapter 14
01:04:21.149                             : Chapter 15
01:09:48.768                             : Chapter 16
01:13:35.119                             : Chapter 17
01:19:56.917                             : Chapter 18

65ecbb0ac1a76ecbb2c1cbfeaca8d3a5.png

[/url]f2f1e9bca758dba82e2df47554cf651f.png

[/url]



                                                                                                                                                                                                        
                                                                                                                                                                                                                                                                                                                                                                                                                                                                                                                                                                                                                                                                                                                                                                                                                                                        
361bbf637785856b560883245262362d.torrent (24.01 KB, 下载次数: 0)

回复

使用道具 举报

小黑屋|西西论坛

本网站所有资源来自网络,如无意中侵犯了您的权益,请发邮件至 [email protected],立即清除相关链接

GMT+8, 2021-12-3 15:30 , Processed in 0.116814 second(s), 17 queries .

Powered by Discuz! X3.2

© 2001-2013 Comsenz Inc.

快速回复 返回顶部 返回列表