西西论坛

 找回密码
 立即注册
搜索

谎言之底/湖中男妖 What.Lies.Below.2020.1080p.BluRay.x264.DTS-FGT 7.99GB

[复制链接]
admin 发表于 7 天前 | 显示全部楼层 |阅读模式
谎言之底/湖中男妖 What.Lies.Below.2020.1080p.BluRay.x264.DTS-FGT 7.99GB                                                                                                                                                                                                                                                                                                                                                                                                                                                                                                                                        -->
帖子完整标题:谎言之底/湖中男妖 What.Lies.Below.2020.1080p.BluRay.x264.DTS-FGT 7.99GB



be87c3a2077f10effd74c0fb3e43176f.jpg



◎译  名 谎言之底/湖中男妖
◎片  名 What Lies Below
◎年  代 2020
◎产  地 美国
◎类  别 悬疑 / 惊悚
◎语  言 英语
◎上映日期 2020-12-04(美国网络)
◎豆瓣评分 4.5/10 from 801 users
◎豆瓣链接 
◎导  演 Braden R. Duemmler Braden R. Duemmler
◎主  演 米娜·苏瓦丽 Mena Suvari
       艾玛·霍瓦特 Ema Horvath
       丹尼·柯伯 Danny Corbo
       特里·塔克 Trey Tucker
       特洛伊·岩田 Troy Iwata

◎标  签 惊悚 | 美国 | 恐怖 | 莫名其妙 | 科幻 | 恐怖电影 | 2020 | 电影

◎简  介

  一个16岁的女孩从夏令营回家,得知她妈妈有了个要结婚的新男友,而这个迷人、帅气、聪明的男人,看起来可根本不像是人类。
Video
ID                                       : 1
Format                                   : AVC
Format/Info                              : Advanced Video Codec
Format profile                           :
Format settings                          : CABAC / 4 Ref Frames
Format settings, CABAC                   : Yes
Format settings, Reference frames        : 4 frames
Codec ID                                 : V_MPEG4/ISO/AVC
Duration                                 : 1 h 27 min
Bit rate                                 : 11.5 Mb/s
Width                                    : 1 920 pixels
Height                                   : 1 036 pixels
Display aspect ratio                     : 1.85:1
Frame rate mode                          : Constant
Frame rate                               : 23.976 (24000/1001/189150) FPS
Color space                              : YUV
Chroma subsampling                       : 4:2:0
Bit depth                                : 8 bits
Scan type                                : Progressive
Bits/(Pixel*Frame)                       : 0.241
Stream size                              : 7.06 GiB (88%)
Writing library                          : x264 core 148 r2748 97eaef2
Encoding settings                        : cabac=1 / ref=4 / deblock=1:-2:-2 / analyse=0x3:0x113 / me=umh / subme=9 / psy=1 / psy_rd=1.00:0.15 / mixed_ref=1 / me_range=16 / chroma_me=1 / trellis=2 / 8x8dct=1 / cqm=0 / deadzone=21,11 / fast_pskip=1 / chroma_qp_offset=-3 / threads=72 / lookahead_threads=3 / sliced_threads=0 / nr=0 / decimate=1 / interlaced=0 / bluray_compat=0 / constrained_intra=0 / bframes=3 / b_pyramid=2 / b_adapt=1 / b_bias=0 / direct=3 / weightb=1 / open_gop=0 / weightp=2 / keyint=250 / keyint_min=25 / scenecut=40 / intra_refresh=0 / rc_lookahead=50 / rc=2pass / mbtree=1 / bitrate=11500 / ratetol=1.0 / qcomp=0.60 / qpmin=0 / qpmax=69 / qpstep=4 / cplxblur=20.0 / qblur=0.5 / vbv_maxrate=31250 / vbv_bufsize=31250 / nal_hrd=none / filler=0 / ip_ratio=1.40 / aq=1:1.00
Language                                 : English
Default                                  : Yes
Forced                                   : No

Audio
ID                                       : 2
ID in the original source medium         : 4353 (0x1101)
Format                                   : DTS
Format/Info                              : Digital Theater Systems
Codec ID                                 : A_DTS
Duration                                 : 1 h 27 min
Bit rate mode                            : Constant
Bit rate                                 : 1 509 kb/s
Channel(s)                               : 6 channels
Channel layout                           : C L R Ls Rs LFE
Sampling rate                            : 48.0 kHz
Frame rate                               : 93.750 FPS (512 SPF)
Bit depth                                : 24 bits
Compression mode                         : Lossy
Stream size                              : 949 MiB (12%)
Title                                    : Surround 5.1
Language                                 : English
Default                                  : No
Forced                                   : No
Original source medium                   : Blu-ray

Text #1
ID                                       : 3
Format                                   : UTF-8
Codec ID                                 : S_TEXT/UTF8
Codec ID/Info                            : UTF-8 Plain Text
Duration                                 : 49 min 10 s
Bit rate                                 : 1 b/s
Count of elements                        : 16
Stream size                              : 471 Bytes (0%)
Title                                    : FORCED
Language                                 : English
Default                                  : No
Forced                                   : Yes

Text #2
ID                                       : 4
Format                                   : UTF-8
Codec ID                                 : S_TEXT/UTF8
Codec ID/Info                            : UTF-8 Plain Text
Duration                                 : 1 h 22 min
Bit rate                                 : 32 b/s
Count of elements                        : 920
Stream size                              : 19.5 KiB (0%)
Language                                 : English
Default                                  : No
Forced                                   : No

Menu
00:00:00.000                             : de:Chapter 01
00:09:29.151                             : de:Chapter 02
00:17:21.081                             : de:Chapter 03
00:24:54.910                             : de:Chapter 04
00:35:04.352                             : de:Chapter 05
00:41:06.422                             : de:Chapter 06
00:49:11.406                             : de:Chapter 07
00:57:51.718                             : de:Chapter 08
01:06:16.180                             : de:Chapter 09
01:13:46.088                             : de:Chapter 10
01:20:37.499                             : de:Chapter 11
01:24:38.823                             : de:Chapter 12

c601f9d820ba96433d2a92d16d804ddb.png

[/url]9a3a8463b9e0bdb191f519aaa1640b8b.png

[/url]1e22b5fe61f0c1c82bac43503d05964c.png

[/url]



                                                                                                                                                                                                        
                                                                                                                                                                                                                                                                                                                                                                                                                                                                                                                                                                                                                                                                                                                                                                                                                                                        
639f987ac735edfe2119a1610f84dc7d.torrent (20.61 KB, 下载次数: 0)

回复

使用道具 举报

小黑屋|西西论坛

本网站所有资源来自网络,如无意中侵犯了您的权益,请发邮件至 [email protected],立即清除相关链接

GMT+8, 2021-10-20 11:09 , Processed in 0.091555 second(s), 17 queries .

Powered by Discuz! X3.2

© 2001-2013 Comsenz Inc.

快速回复 返回顶部 返回列表