西西论坛

 找回密码
 立即注册
搜索

夜迷情/夜班 Night.Shift.1982.1080p.BluRay.x264.AAC2.0-HANDJOB 8.36GB

[复制链接]
admin 发表于 7 天前 | 显示全部楼层 |阅读模式
夜迷情/夜班 Night.Shift.1982.1080p.BluRay.x264.AAC2.0-HANDJOB 8.36GB                                                                                                                                                                                                                                                                                                                                                                                                                                                                                                                                        -->
帖子完整标题:夜迷情/夜班 Night.Shift.1982.1080p.BluRay.x264.AAC2.0-HANDJOB 8.36GB



25f8623884f1e8f9d3db186628cbf19a.jpg



◎译  名 夜迷情/夜班/情牵一生梦/销魂大夜班
◎片  名 Night Shift
◎年  代 1982
◎产  地 美国
◎类  别 喜剧
◎语  言 英语
◎上映日期 1982-07-30
◎豆瓣评分 7.2/10 from 69 users
◎豆瓣链接 
◎片  长 106 分钟
◎导  演 朗·霍华德 Ron Howard
◎编  剧 洛维尔·冈茨 Lowell Ganz / 巴巴卢·曼德尔 Babaloo Mandel
◎主  演 亨利·温克勒 Henry Winkler
       迈克尔·基顿 Michael Keaton
       谢莉·朗 Shelley Long
       吉娜·赫特 Gina Hecht
       Pat Corley Pat Corley
       博比·迪奇科 Bobby Di Cicco
       妮塔塔尔博特 Nita Talbot
       Basil Hoffman Basil Hoffman
       蒂姆·罗索维奇 Tim Rossovich
       克林特·霍华德 Clint Howard
       乔·斯皮内尔 Joe Spinell
       Becky Gonzalez Becky Gonzalez
       Jaid Barrymore Jaid Barrymore
       欧拉·蕾 Ola Ray
       卡桑德拉·加瓦 Cassandra Gava
       米密·利伯 Mimi Lieber
       Ashley Cox Ashley Cox
       珍妮·莫里 Jeanne Mori
       莫妮卡·加布里埃尔 Monique Gabrielle
       理查德·贝尔泽 Richard Belzer
       巴贾·乔拉 Badja Djola
       Marc Flanagan Marc Flanagan
       比务·比林格斯勒拉 Beau Billingslea
       凯文·罗德尼·沙利文 Kevin Rodney Sullivan
       格兰德·L·布什 Grand L. Bush
       Julius LeFlore Julius LeFlore
       里德·克鲁克香克斯 Reid Cruickshanks
       查尔斯·弗莱舍 Charles Fleischer
       Tom Mahoney Tom Mahoney
       文森特·斯卡维利 Vincent Schiavelli
       杰克·帕金斯 Jack Perkins
       Paul S. Kaufman Paul S. Kaufman
       Hugo Napier Hugo Napier
       凯文·科斯特纳 Kevin Costner
       莎侬·多赫提 Shannen Doherty
       John Milton Branton John Milton Branton
       Larry Gamell Jr. Larry Gamell Jr.
       谢丽尔·霍华德 Cheryl Howard
       朗·霍华德 Ron Howard
       William Magerman William Magerman
       迈克尔·帕塔奇 Michael Pataki
       Darcel Wynne Darcel Wynne

◎标  签 喜剧 | 美国 | 美国电影 | 1982 | 朗·霍华德 | D朗·霍华德 | 1980 | 电影

◎简  介

  恰克(亨利·温克勒 Henry Winkler 饰)拥有一份非常特殊的职业——停尸房管理员。之前是白班的他被调整到了夜班的岗位之上,这也就意味着,他必须和自己最最讨厌的同事比尔(迈克尔·基顿 Michael Keaton 饰)共同值班,比尔是一个神神叨叨的人,他古怪而又自认为伟大的计划令恰克感到恶心。
  
  恰克和比尔周围生活着一群应召女郎,一天,比尔听闻她们抱怨自己失去了工作的场所,灵机一动的比尔决定将停尸房借用给妓院做生意,自己坐收渔翁之利,就这样,停尸房这样一个恐怖又严肃的地方,每一夜却在上演着声色迷离的暧昧场面。恰克感觉自己快要被这超现实的画面给逼疯了。
Video
ID                                       : 1
Format                                   : AVC
Format/Info                              : Advanced Video Codec
Format profile                           :
Format settings                          : CABAC / 4 Ref Frames
Format settings, CABAC                   : Yes
Format settings, Reference frames        : 4 frames
Codec ID                                 : V_MPEG4/ISO/AVC
Duration                                 : 1 h 46 min
Bit rate                                 : 10.9 Mb/s
Width                                    : 1 920 pixels
Height                                   : 1 036 pixels
Display aspect ratio                     : 1.85:1
Frame rate mode                          : Constant
Frame rate                               : 23.976 (24000/1001/189150) FPS
Color space                              : YUV
Chroma subsampling                       : 4:2:0
Bit depth                                : 8 bits
Scan type                                : Progressive
Bits/(Pixel*Frame)                       : 0.230
Stream size                              : 8.14 GiB (97%)
Writing library                          : x264 core 157 r2935 545de2f
Encoding settings                        : cabac=1 / ref=4 / deblock=1:-3:-3 / analyse=0x3:0x133 / me=umh / subme=11 / psy=1 / psy_rd=1.00:0.00 / mixed_ref=1 / me_range=32 / chroma_me=1 / trellis=2 / 8x8dct=1 / cqm=0 / deadzone=21,11 / fast_pskip=0 / chroma_qp_offset=-2 / threads=6 / lookahead_threads=1 / sliced_threads=0 / nr=0 / decimate=0 / interlaced=0 / bluray_compat=0 / constrained_intra=0 / bframes=16 / b_pyramid=2 / b_adapt=2 / b_bias=0 / direct=3 / weightb=1 / open_gop=0 / weightp=2 / keyint=240 / keyint_min=24 / scenecut=40 / intra_refresh=0 / rc_lookahead=60 / rc=crf / mbtree=0 / crf=20.5 / qcomp=0.60 / qpmin=0 / qpmax=69 / qpstep=4 / vbv_maxrate=62500 / vbv_bufsize=78125 / crf_max=0.0 / nal_hrd=none / filler=0 / ip_ratio=1.30 / pb_ratio=1.20 / aq=1:0.90
Default                                  : Yes
Forced                                   : No
Color range                              : Limited
Color primaries                          : BT.709
Transfer characteristics                 : BT.709
Matrix coefficients                      : BT.709

Audio
ID                                       : 2
Format                                   : AAC LC
Format/Info                              : Advanced Audio Codec Low Complexity
Codec ID                                 : A_AAC-2
Duration                                 : 1 h 46 min
Bit rate                                 : 302 kb/s
Channel(s)                               : 2 channels
Channel layout                           : L R
Sampling rate                            : 48.0 kHz
Frame rate                               : 46.875 FPS (1024 SPF)
Compression mode                         : Lossy
Stream size                              : 230 MiB (3%)
Language                                 : English
Default                                  : Yes
Forced                                   : No

Text
ID                                       : 3
Format                                   : UTF-8
Codec ID                                 : S_TEXT/UTF8
Codec ID/Info                            : UTF-8 Plain Text
Duration                                 : 1 h 45 min
Bit rate                                 : 75 b/s
Count of elements                        : 1986
Stream size                              : 58.3 KiB (0%)
Title                                    : Hard of Hearing
Language                                 : English
Default                                  : No
Forced                                   : No

Menu
00:00:00.000                             : :Chapter 1
00:03:56.486                             : :Chapter 2
00:06:41.610                             : :Chapter 3
00:08:39.769                             : :Chapter 4
00:10:08.108                             : :Chapter 5
00:14:27.033                             : :Chapter 6
00:16:50.760                             : :Chapter 7
00:21:29.622                             : :Chapter 8
00:22:15.042                             : :Chapter 9
00:26:24.958                             : :Chapter 10
00:31:14.623                             : :Chapter 11
00:34:15.220                             : :Chapter 12
00:36:03.912                             : :Chapter 13
00:39:16.855                             : :Chapter 14
00:43:00.244                             : :Chapter 15
00:46:40.256                             : :Chapter 16
00:47:19.587                             : :Chapter 17
00:51:08.107                             : :Chapter 18
00:53:24.076                             : :Chapter 19
00:55:41.255                             : :Chapter 20
00:58:37.139                             : :Chapter 21
01:01:36.026                             : :Chapter 22
01:02:26.284                             : :Chapter 23
01:03:03.154                             : :Chapter 24
01:06:26.858                             : :Chapter 25
01:08:03.663                             : :Chapter 26
01:10:54.876                             : :Chapter 27
01:12:52.869                             : :Chapter 28
01:16:35.007                             : :Chapter 29
01:17:47.997                             : :Chapter 30
01:19:01.820                             : :Chapter 31
01:22:23.814                             : :Chapter 32
01:26:42.531                             : :Chapter 33
01:31:59.514                             : :Chapter 34
01:35:10.330                             : :Chapter 35
01:42:20.009                             : :Chapter 36

c4c18b386fb238f60339fedd4f2ea543.png

[/url]61ec72f7ede1a47ad9f7063378fc29e6.png

[/url]c538b330944a53d6a588920d6e349a2d.png

[/url]



                                                                                                                                                                                                        
                                                                                                                                                                                                                                                                                                                                                                                                                                                                                                                                                                                                                                                                                                                                                                                                                                                        
6083abf297462c0b40538d3c404e7ecf.torrent (21.53 KB, 下载次数: 0)

回复

使用道具 举报

小黑屋|西西论坛

本网站所有资源来自网络,如无意中侵犯了您的权益,请发邮件至 [email protected],立即清除相关链接

GMT+8, 2021-10-20 12:11 , Processed in 0.114585 second(s), 17 queries .

Powered by Discuz! X3.2

© 2001-2013 Comsenz Inc.

快速回复 返回顶部 返回列表