西西论坛

 找回密码
 立即注册
搜索

情网歌声 The.Great.Gabbo.1929.1080p.BluRay.x264.FLAC.1.0-EDPH 9.92GB

[复制链接]
admin 发表于 7 天前 | 显示全部楼层 |阅读模式
情网歌声 The.Great.Gabbo.1929.1080p.BluRay.x264.FLAC.1.0-EDPH 9.92GB                                                                                                                                                                                                                                                                                                                                                                                                                                                                                                                                        -->
帖子完整标题:情网歌声 The.Great.Gabbo.1929.1080p.BluRay.x264.FLAC.1.0-EDPH 9.92GB





◎译  名 情网歌声
◎片  名 The Great Gabbo
◎年  代 1929
◎产  地 美国
◎类  别 剧情 / 爱情 / 歌舞
◎语  言 德语,英语
◎上映日期 1929-09-12
◎豆瓣评分 /10 from 0 users
◎豆瓣链接 
◎片  长 92 分钟
◎导  演 埃里克·冯·施特罗海姆 Erich von Stroheim / 詹姆斯·克鲁兹 James Cruze
◎编  剧 本·赫克特 Ben Hecht / 休·赫伯特 Hugh Herbert
◎主  演 贝蒂·康姆逊 Betty Compson
       海伦·甘 Helen Kane
       唐纳德·道格拉斯 Donald Douglas
       John F. Hamilton John F. Hamilton
       George Grandee George Grandee
       Marjorie Kane Marjorie Kane
       Marbeth Wright Marbeth Wright
       埃里克·冯·施特罗海姆 Erich von Stroheim

◎标  签 美国 | 歌舞 | 埃里克·冯·施特罗海姆 | 1920s | 爱情 | 黑白 | 剧情 | D埃里克·冯·施特罗海姆

◎简  介

  斯特劳亨主演的早期歌舞片,讲述了一个粗暴的自我为中心的口技表演者Gabbo,他凡事都要依靠他的木偶Otto来表达,后来她爱上了一个心另有所属的舞者,木偶开始规劝他。
  
  靠木偶操作者不动嘴唇说话来操作的木偶与其操作者的对话经常是恐怖片的喜欢利用的桥段,这次它用在还是作为新鲜玩意儿的有声片中自然主要是为了炫耀声音的目的。另外片中还有大段的歌舞段落。
Video
ID                                       : 1
Format                                   : AVC
Format/Info                              : Advanced Video Codec
Format profile                           :
Format settings                          : CABAC / 5 Ref Frames
Format settings, CABAC                   : Yes
Format settings, Reference frames        : 5 frames
Codec ID                                 : V_MPEG4/ISO/AVC
Duration                                 : 1 h 36 min
Bit rate                                 : 14.4 Mb/s
Width                                    : 1 448 pixels
Height                                   : 1 080 pixels
Display aspect ratio                     : 4:3
Frame rate mode                          : Constant
Frame rate                               : 24.000 FPS
Color space                              : YUV
Chroma subsampling                       : 4:2:0
Bit depth                                : 8 bits
Scan type                                : Progressive
Bits/(Pixel*Frame)                       : 0.385
Stream size                              : 9.69 GiB (98%)
Writing library                          : x264 core 160 r3009 4c9b076
Encoding settings                        : cabac=1 / ref=5 / deblock=1:-3:-3 / analyse=0x3:0x133 / me=umh / subme=11 / psy=1 / psy_rd=1.02:0.00 / mixed_ref=1 / me_range=32 / chroma_me=1 / trellis=2 / 8x8dct=1 / cqm=0 / deadzone=21,11 / fast_pskip=0 / chroma_qp_offset=-2 / threads=34 / lookahead_threads=8 / sliced_threads=0 / nr=0 / decimate=0 / interlaced=0 / bluray_compat=0 / constrained_intra=0 / bframes=16 / b_pyramid=2 / b_adapt=2 / b_bias=0 / direct=3 / weightb=1 / open_gop=0 / weightp=2 / keyint=250 / keyint_min=24 / scenecut=40 / intra_refresh=0 / rc_lookahead=250 / rc=crf / mbtree=0 / crf=21.0 / qcomp=0.80 / qpmin=0 / qpmax=69 / qpstep=4 / vbv_maxrate=62500 / vbv_bufsize=78125 / crf_max=0.0 / nal_hrd=none / filler=0 / ip_ratio=1.30 / pb_ratio=1.20 / aq=3:0.80
Language                                 : English
Default                                  : Yes
Forced                                   : No
Color range                              : Limited
Color primaries                          : BT.709
Matrix coefficients                      : BT.709

Audio #1
ID                                       : 2
Format                                   : FLAC
Format/Info                              : Free Lossless Audio Codec
Codec ID                                 : A_FLAC
Duration                                 : 1 h 36 min
Bit rate mode                            : Variable
Bit rate                                 : 258 kb/s
Channel(s)                               : 1 channel
Channel layout                           : C
Sampling rate                            : 48.0 kHz
Frame rate                               : 11.719 FPS (4096 SPF)
Bit depth                                : 16 bits
Compression mode                         : Lossless
Stream size                              : 177 MiB (2%)
Writing library                          : libFLAC 1.3.3 (UTC 2019-08-04)
Language                                 : English
Default                                  : Yes
Forced                                   : No

Audio #2
ID                                       : 3
Format                                   : AAC LC
Format/Info                              : Advanced Audio Codec Low Complexity
Codec ID                                 : A_AAC-2
Duration                                 : 1 h 36 min
Bit rate                                 : 77.7 kb/s
Channel(s)                               : 2 channels
Channel layout                           : L R
Sampling rate                            : 48.0 kHz
Frame rate                               : 46.875 FPS (1024 SPF)
Compression mode                         : Lossy
Stream size                              : 53.4 MiB (0%)
Title                                    : Commentary by author Richard Barrios
Language                                 : English
Default                                  : No
Forced                                   : No

Text
ID                                       : 4
Format                                   : UTF-8
Codec ID                                 : S_TEXT/UTF8
Codec ID/Info                            : UTF-8 Plain Text
Duration                                 : 1 h 34 min
Bit rate                                 : 55 b/s
Count of elements                        : 1164
Stream size                              : 38.5 KiB (0%)
Title                                    : SDH-AMAZON
Language                                 : English
Default                                  : No
Forced                                   : No

Menu
00:00:00.000                             : en:Opening Titles
00:04:01.292                             : en:Gabbo & Otto
00:07:37.875                             : en:At It Again
00:15:26.542                             : en:Together Alone
00:22:35.958                             : en:Talk Of the Town
00:25:51.666                             : en:By Special Request
00:31:55.041                             : en:\"Every Now and Then\"
00:39:28.583                             : enressing
00:42:39.791                             : en:Onstage & Off
00:50:44.041                             : en:The Big Revue
01:01:05.791                             : en:\"The New Step\"
01:06:04.250                             : en:\"The Web of Love\"
01:15:14.792                             : en:A Second Chance
01:24:30.707                             : en:The Finale
01:33:20.082                             : en:After the Curtain
01:34:17.375                             : en:End Credits





                                                                                                                                                                                                        
                                                                                                                                                                                                                                                                                                                                                                                                                                                                                                                                                                                                                                                                                                                                                                                                                                                        
5f33d45bd10c05e7d6db4d1d342cb7ab.torrent (25.42 KB, 下载次数: 0)

回复

使用道具 举报

小黑屋|西西论坛

本网站所有资源来自网络,如无意中侵犯了您的权益,请发邮件至 [email protected],立即清除相关链接

GMT+8, 2021-10-20 11:11 , Processed in 0.107923 second(s), 17 queries .

Powered by Discuz! X3.2

© 2001-2013 Comsenz Inc.

快速回复 返回顶部 返回列表