西西论坛

 找回密码
 立即注册
搜索

猎头者 Headhunter.2009.DANISH.1080p.BluRay.x264.DTS-SbR 11.66GB

[复制链接]
admin 发表于 5 天前 | 显示全部楼层 |阅读模式
猎头者 Headhunter.2009.DANISH.1080p.BluRay.x264.DTS-SbR 11.66GB                                                                                                                                                                                                                                                                                                                                                                                                                                                                                                                                        -->
帖子完整标题:猎头者 Headhunter.2009.DANISH.1080p.BluRay.x264.DTS-SbR 11.66GB





◎译  名 猎头者
◎片  名 Headhunter
◎年  代 2009
◎产  地 丹麦
◎类  别 惊悚
◎语  言 丹麦语
◎上映日期 2009
◎豆瓣评分 6.6/10 from 92 users
◎豆瓣链接 
◎片  长 108 分钟
◎导  演 拉姆尔·哈默里克 Rumle Hammerich
◎编  剧 拉姆尔·哈默里克 Rumle Hammerich / ?ke Sandgren ?ke Sandgren
◎主  演 拉斯·米克尔森 Lars Mikkelsen
       赫宁·莫里岑 Henning Moritzen
       Preben Harris Preben Harris
       夏洛特·蒙克 Charlotte Munck
       夏洛特·菲奇 Charlotte Fich
       索伦·斯贝宁 S?ren Spanning
       Sami Darr Sami Darr
       雅各布·B·恩格曼 Jakob B. Engmann
       珍斯·安德森 Jens Andersen
       安妮·苏菲·埃斯珀森 Anne Sofie Espersen
       Andrea Vagn Jensen Andrea Vagn Jensen
       Maria Stokholm Maria Stokholm
       David Petersen David Petersen
       托尔斯·利比 Troels Lyby
       杰尔德·诺加德 Kjeld N?rgaard
       Rita Angela Rita Angela
       大卫·巴特森 David Bateson
       Adam Brix Adam Brix
       萨穆埃尔·弗洛勒 Samuel Fr?ler
       Flemming Enevold Flemming Enevold
       薇比珂·哈斯特伦 Vibeke Hastrup
       Morten Hauch-Fausb?ll Morten Hauch-Fausb?ll
       Bendt Hildebrandt Bendt Hildebrandt

◎标  签 猎头 | 丹麦电影 | 丹麦 | 悬疑 | 剧情 | 北欧 | 米克尔森 | 丹麥

◎简  介

  Martin Vinge,以前是个臭名昭著的记者,现在是成功的猎头,并且个人生活复杂,他与丹麦最大船运公司和石油帝国的头目Sieger有秘密联系。Sieger雇佣Martin去物色一个继承人来替代他的儿子。Sieger由此陷入了一场利益与权利的斗争。
Video
ID                                       : 1
Format                                   : AVC
Format/Info                              : Advanced Video Codec
Format profile                           :
Format settings                          : CABAC / 4 Ref Frames
Format settings, CABAC                   : Yes
Format settings, Reference frames        : 4 frames
Codec ID                                 : V_MPEG4/ISO/AVC
Duration                                 : 1 h 47 min
Bit rate                                 : 14.1 Mb/s
Width                                    : 1 920 pixels
Height                                   : 800 pixels
Display aspect ratio                     : 2.40:1
Frame rate mode                          : Constant
Frame rate                               : 24.000 FPS
Color space                              : YUV
Chroma subsampling                       : 4:2:0
Bit depth                                : 8 bits
Scan type                                : Progressive
Bits/(Pixel*Frame)                       : 0.381
Stream size                              : 10.5 GiB (90%)
Writing library                          : x264 core 164 r3065+62M b012ed0 devel [(8 & 10) X86_64]
Encoding settings                        : cabac=1 / ref=4 / deblock=1:-3:-3 / analyse=0x3:0x133 / me=umh / subme=11 / psy=1 / fade_compensate=0.00 / psy_rd=1.00:0.00 / mixed_ref=1 / me_range=32 / chroma_me=1 / trellis=2 / 8x8dct=1 / cqm=0 / deadzone=21,11 / fast_pskip=1 / chroma_qp_offset=-2 / threads=32 / lookahead_threads=6 / sliced_threads=0 / nr=0 / decimate=1 / interlaced=0 / bluray_compat=0 / constrained_intra=0 / fgo=0 / bframes=10 / b_pyramid=2 / b_adapt=2 / b_bias=0 / direct=3 / weightb=1 / open_gop=0 / weightp=2 / keyint=250 / keyint_min=24 / scenecut=40 / intra_refresh=0 / rc=crf / mbtree=0 / crf=17.0000 / qcomp=0.65 / qpmin=0:0:0 / qpmax=69:69:69 / qpstep=4 / ip_ratio=1.25 / pb_ratio=1.20 / aq=1:0.60 / aq-sensitivity=10.00 / aq-factor=1.00:1.00:1.00 / aq2=0 / aq3=0
Language                                 : Danish
Default                                  : Yes
Forced                                   : No

Audio
ID                                       : 2
Format                                   : DTS
Format/Info                              : Digital Theater Systems
Codec ID                                 : A_DTS
Duration                                 : 1 h 47 min
Bit rate mode                            : Constant
Bit rate                                 : 1 509 kb/s
Channel(s)                               : 6 channels
Channel layout                           : C L R Ls Rs LFE
Sampling rate                            : 48.0 kHz
Frame rate                               : 93.750 FPS (512 SPF)
Bit depth                                : 24 bits
Compression mode                         : Lossy
Stream size                              : 1.13 GiB (10%)
Language                                 : Danish
Default                                  : Yes
Forced                                   : No

Text #1
ID                                       : 3
Format                                   : ASS
Codec ID                                 : S_TEXT/ASS
Codec ID/Info                            : Advanced Sub Station Alpha
Duration                                 : 1 h 42 min
Bit rate                                 : 103 b/s
Count of elements                        : 788
Compression mode                         : Lossless
Stream size                              : 77.6 KiB (0%)
Language                                 : Russian
Default                                  : No
Forced                                   : No

Text #2
ID                                       : 4
Format                                   : UTF-8
Codec ID                                 : S_TEXT/UTF8
Codec ID/Info                            : UTF-8 Plain Text
Duration                                 : 1 h 42 min
Bit rate                                 : 81 b/s
Count of elements                        : 788
Stream size                              : 60.8 KiB (0%)
Language                                 : Russian
Default                                  : No
Forced                                   : No

Text #3
ID                                       : 5
Format                                   : ASS
Codec ID                                 : S_TEXT/ASS
Codec ID/Info                            : Advanced Sub Station Alpha
Duration                                 : 1 h 42 min
Bit rate                                 : 67 b/s
Count of elements                        : 788
Compression mode                         : Lossless
Stream size                              : 51.1 KiB (0%)
Language                                 : English
Default                                  : No
Forced                                   : No

Text #4
ID                                       : 6
Format                                   : UTF-8
Codec ID                                 : S_TEXT/UTF8
Codec ID/Info                            : UTF-8 Plain Text
Duration                                 : 1 h 42 min
Bit rate                                 : 45 b/s
Count of elements                        : 788
Stream size                              : 34.2 KiB (0%)
Language                                 : English
Default                                  : No
Forced                                   : No

Text #5
ID                                       : 7
Format                                   : UTF-8
Codec ID                                 : S_TEXT/UTF8
Codec ID/Info                            : UTF-8 Plain Text
Duration                                 : 1 h 25 min
Bit rate                                 : 3 b/s
Count of elements                        : 57
Stream size                              : 2.18 KiB (0%)
Title                                    : Forced
Language                                 : Danish
Default                                  : No
Forced                                   : No

Text #6
ID                                       : 8
Format                                   : UTF-8
Codec ID                                 : S_TEXT/UTF8
Codec ID/Info                            : UTF-8 Plain Text
Duration                                 : 1 h 43 min
Bit rate                                 : 47 b/s
Count of elements                        : 922
Stream size                              : 36.1 KiB (0%)
Language                                 : Danish
Default                                  : No
Forced                                   : No

Text #7
ID                                       : 9
Format                                   : UTF-8
Codec ID                                 : S_TEXT/UTF8
Codec ID/Info                            : UTF-8 Plain Text
Duration                                 : 1 h 43 min
Bit rate                                 : 46 b/s
Count of elements                        : 908
Stream size                              : 35.0 KiB (0%)
Language                                 : Finnish
Default                                  : No
Forced                                   : No

Text #8
ID                                       : 10
Format                                   : UTF-8
Codec ID                                 : S_TEXT/UTF8
Codec ID/Info                            : UTF-8 Plain Text
Duration                                 : 1 h 43 min
Bit rate                                 : 47 b/s
Count of elements                        : 908
Stream size                              : 35.7 KiB (0%)
Language                                 : Norwegian
Default                                  : No
Forced                                   : No

Text #9
ID                                       : 11
Format                                   : UTF-8
Codec ID                                 : S_TEXT/UTF8
Codec ID/Info                            : UTF-8 Plain Text
Duration                                 : 1 h 43 min
Bit rate                                 : 45 b/s
Count of elements                        : 870
Stream size                              : 34.2 KiB (0%)
Language                                 : Swedish
Default                                  : No
Forced                                   : No

Menu #1
00:00:00.000                             : 01. The sick child
00:08:30.000                             : 02. The order
00:16:39.000                             : 03. No coincidence
00:22:25.000                             : 04. Daniel
00:35:31.000                             : 05. Basement corpses
00:44:11.000                             : 06. Lonliness
00:49:56.000                             : 07. Dirty game
00:55:50.000                             : 08. Target
01:10:00.000                             : 09. Treason
01:16:05.000                             : 10. No turning back
01:23:02.000                             : 11. Home visits
01:30:32.000                             : 12. The last deal
01:37:40.000                             : 13. Armstrong 2001
01:44:24.000                             : 14. Credits

[/url][/url][/url]



                                                                                                                                                                                                        
                                                                                                                                                                                                                                                                                                                                                                                                                                                                                                                                                                                                                                                                                                                                                                                                                                                        
31d8e42e82b36bd4cfe3cb654d3037b5.torrent (15.2 KB, 下载次数: 0)

回复

使用道具 举报

小黑屋|西西论坛

本网站所有资源来自网络,如无意中侵犯了您的权益,请发邮件至 [email protected],立即清除相关链接

GMT+8, 2021-9-19 15:54 , Processed in 0.133680 second(s), 17 queries .

Powered by Discuz! X3.2

© 2001-2013 Comsenz Inc.

快速回复 返回顶部 返回列表