西西论坛

 找回密码
 立即注册
搜索

我们创造的世界 The.World.We.Make.2019.1080p.BluRay.x264-JustWatch 4.71GB

[复制链接]
admin 发表于 2021-9-11 12:27:18 | 显示全部楼层 |阅读模式
我们创造的世界 The.World.We.Make.2019.1080p.BluRay.x264-JustWatch 4.71GB                                                                                                                                                                                                                                                                                                                                                                                                                                                                                                                                        -->
帖子完整标题:我们创造的世界 The.World.We.Make.2019.1080p.BluRay.x264-JustWatch 4.71GB



0f94686355bf67f93170bb7b55be6873.jpg



◎译  名 我们创造的世界
◎片  名 The.World.We.Make
◎年  代 2019
◎产  地 美国
◎类  别 剧情
◎语  言 英语
◎上映日期 2019-07-27(荷兰)
◎豆瓣评分 /10 from 0 users
◎豆瓣链接 
◎片  长 108分钟
◎导  演 布赖恩·博姆 Brian Baugh
◎编  剧 克里斯·道林 Chris Dowling
◎主  演 迦勒·卡斯提尔 Caleb Castille
       凯文·塞兹摩尔 Kevin Sizemore
       格雷戈里·艾伦·威廉斯 Gregory Alan Williams
       贡纳·赛兹莫尔 Gunnar Sizemore
       理查德·科恩克 Richard Kohnke
       凯瑟琳 史密斯 罗登 Katherine Smith Rodden

◎简  介

  18 year old Lee (a spirited equestrian) and Jordan (an academic and football standout) are at the threshold of building a life together. But their character is tested when racial bias surfaces in their otherwise progressive small town.
Video
ID                                       : 1
Format                                   : AVC
Format/Info                              : Advanced Video Codec
Format profile                           :
Format settings                          : CABAC / 5 Ref Frames
Format settings, CABAC                   : Yes
Format settings, Reference frames        : 5 frames
Codec ID                                 : V_MPEG4/ISO/AVC
Duration                                 : 1 h 48 min
Bit rate                                 : 5 762 kb/s
Width                                    : 1 920 pixels
Height                                   : 804 pixels
Display aspect ratio                     : 2.40:1
Frame rate mode                          : Constant
Frame rate                               : 23.976 (24000/1001/189150) FPS
Color space                              : YUV
Chroma subsampling                       : 4:2:0
Bit depth                                : 8 bits
Scan type                                : Progressive
Bits/(Pixel*Frame)                       : 0.156
Stream size                              : 4.37 GiB (93%)
Writing library                          : x264 core 164 r3065 ae03d92
Encoding settings                        : cabac=1 / ref=5 / deblock=1:-3:-3 / analyse=0x3:0x133 / me=umh / subme=9 / psy=1 / psy_rd=1.00:0.00 / mixed_ref=1 / me_range=16 / chroma_me=1 / trellis=2 / 8x8dct=1 / cqm=0 / deadzone=21,11 / fast_pskip=0 / chroma_qp_offset=-2 / threads=25 / lookahead_threads=2 / sliced_threads=0 / nr=0 / decimate=1 / interlaced=0 / bluray_compat=0 / constrained_intra=0 / bframes=3 / b_pyramid=2 / b_adapt=2 / b_bias=0 / direct=3 / weightb=1 / open_gop=0 / weightp=2 / keyint=250 / keyint_min=23 / scenecut=40 / intra_refresh=0 / rc_lookahead=60 / rc=crf / mbtree=1 / crf=17.0 / qcomp=0.60 / qpmin=0 / qpmax=69 / qpstep=4 / ip_ratio=1.40 / aq=1:1.00
Language                                 : English
Default                                  : Yes
Forced                                   : No

Audio
ID                                       : 2
Format                                   : AC-3
Format/Info                              : Audio Coding 3
Commercial name                          : Dolby Digital
Codec ID                                 : A_AC3
Duration                                 : 1 h 48 min
Bit rate mode                            : Constant
Bit rate                                 : 448 kb/s
Channel(s)                               : 6 channels
Channel layout                           : L R C LFE Ls Rs
Sampling rate                            : 48.0 kHz
Frame rate                               : 31.250 FPS (1536 SPF)
Compression mode                         : Lossy
Stream size                              : 348 MiB (7%)
Language                                 : English
Service kind                             : Complete Main
Default                                  : Yes
Forced                                   : No

Menu
00:00:00.000                             : en:Chapter 01
00:11:11.129                             : en:Chapter 02
00:29:31.770                             : en:Chapter 03
00:40:09.032                             : en:Chapter 04
00:54:11.206                             : en:Chapter 05
01:06:19.726                             : en:Chapter 06
01:24:19.012                             : en:Chapter 07
01:34:34.127                             : en:Chapter 08
01:44:07.908                             : en:Chapter 09

a4d95f366dee37067badb486057f0367.jpg





                                                                                                                                                                                                        
                                                                                                                                                                                                                                                                                                                                                                                                                                                                                                                                                                                                                                                                                                                                                                                                                                                        
084742493a134c54049197e9282e474d.torrent (24.29 KB, 下载次数: 0)

回复

使用道具 举报

小黑屋|西西论坛

本网站所有资源来自网络,如无意中侵犯了您的权益,请发邮件至 [email protected],立即清除相关链接

GMT+8, 2021-9-26 21:03 , Processed in 0.129742 second(s), 17 queries .

Powered by Discuz! X3.2

© 2001-2013 Comsenz Inc.

快速回复 返回顶部 返回列表