西西论坛

 找回密码
 立即注册
搜索

那山那人那狗 Postmen.in.the.Mountains.1999.720p.BluRay.x264-USURY 7.27GB

[复制链接]
admin 发表于 2021-9-4 12:51:35 | 显示全部楼层 |阅读模式
那山那人那狗 Postmen.in.the.Mountains.1999.720p.BluRay.x264-USURY 7.27GB                                                                                                                                                                                                                                                                                                                                                                                                                                                                                                                                        -->
帖子完整标题:那山那人那狗 Postmen.in.the.Mountains.1999.720p.BluRay.x264-USURY 7.27GB



ccf771bfabd95d0ed1a2bfe1180d45c1.jpg



◎译  名 Postmen In The Mountains/那山,那人,那狗/那山、那人、那狗
◎片  名 那山那人那狗
◎年  代 1999
◎产  地 中国大陆
◎类  别 剧情 / 家庭
◎语  言 汉语普通话
◎上映日期 1999(中国大陆) / 2001-04-07(日本)
◎豆瓣评分 8.7/10 from 98008 users
◎豆瓣链接 
◎片  长 93分钟
◎导  演 霍建起 Jianqi Huo
◎编  剧 思芜 Wu Si
◎主  演 滕汝骏 Rujun Teng
       刘烨 Ye Liu
       赵秀丽 Xiuli Zhao
       陈好 Hao Chen
       龚业珩 Yeheng Gong
       党浩予 Haoyu Dang

◎标  签 亲情 | 父子 | 温情 | 文艺 | 剧情 | 家庭 | 中国大陆 | 成长

◎简  介

  儿子(刘烨)高考落榜不得已回到大山中的家后,做了大半辈子山村邮递员的父亲(滕汝骏)提前退休,安排儿子接下自己的工作。儿子上班第一天,父亲千叮咛万嘱咐之后仍不放心,带上长年在其左右的忠实老狗决定陪儿子再走一趟送信之旅。
  
  起初,父子两人因为长期隔膜只默默走路,渐渐地,通过与不同村民尤其一个漂亮女孩(陈好)的接触,两人渐渐打开话匣,对彼此有了深一层的认识和了解。秀美如画的风景中,儿子慢慢明白了父亲工作的辛苦和意义,父亲也渐渐体会到他二十几年来对家庭的亏欠。

◎获奖情况

  第25届日本电影学院奖 ?(2002)
  最佳外语片(提名)
  
  第19届中国电影金鸡奖 ?(1999)
  最佳故事片
  最佳导演(提名) 霍建起
  最佳编剧(提名) 思芜
  最佳男主角 滕汝骏
  最佳男配角(提名) 刘烨
  最佳摄影(提名) 赵镭
  
  第6届北京大学生电影节 ?(1999)
  最佳男演员奖 滕汝骏
Video
ID                                       : 1
Format                                   : AVC
Format/Info                              : Advanced Video Codec
Format profile                           :
Format settings                          : CABAC / 9 Ref Frames
Format settings, CABAC                   : Yes
Format settings, Reference frames        : 9 frames
Codec ID                                 : V_MPEG4/ISO/AVC
Duration                                 : 1 h 32 min
Bit rate                                 : 10.7 Mb/s
Width                                    : 1 280 pixels
Height                                   : 692 pixels
Display aspect ratio                     : 1.85:1
Frame rate mode                          : Constant
Frame rate                               : 23.976 (24000/1001/189150) FPS
Color space                              : YUV
Chroma subsampling                       : 4:2:0
Bit depth                                : 8 bits
Scan type                                : Progressive
Bits/(Pixel*Frame)                       : 0.504
Stream size                              : 6.89 GiB (95%)
Writing library                          : x264 core 164 r3065 ae03d92
Encoding settings                        : cabac=1 / ref=9 / deblock=1:-3:-3 / analyse=0x3:0x133 / me=umh / subme=10 / psy=1 / psy_rd=1.00:0.15 / mixed_ref=1 / me_range=24 / chroma_me=1 / trellis=2 / 8x8dct=1 / cqm=0 / deadzone=21,11 / fast_pskip=1 / chroma_qp_offset=-3 / threads=18 / lookahead_threads=3 / sliced_threads=0 / nr=0 / decimate=1 / interlaced=0 / bluray_compat=0 / constrained_intra=0 / bframes=8 / b_pyramid=2 / b_adapt=2 / b_bias=0 / direct=3 / weightb=1 / open_gop=0 / weightp=2 / keyint=250 / keyint_min=23 / scenecut=40 / intra_refresh=0 / rc_lookahead=60 / rc=crf / mbtree=1 / crf=18.0 / qcomp=0.60 / qpmin=0 / qpmax=69 / qpstep=4 / ip_ratio=1.40 / aq=3:0.50
Language                                 : English
Default                                  : Yes
Forced                                   : No

Audio
ID                                       : 2
Format                                   : FLAC
Format/Info                              : Free Lossless Audio Codec
Codec ID                                 : A_FLAC
Duration                                 : 1 h 32 min
Bit rate mode                            : Variable
Bit rate                                 : 532 kb/s
Channel(s)                               : 2 channels
Channel layout                           : L R
Sampling rate                            : 48.0 kHz
Frame rate                               : 11.719 FPS (4096 SPF)
Bit depth                                : 16 bits
Compression mode                         : Lossless
Stream size                              : 351 MiB (5%)
Title                                    : Mandarin
Writing library                          : libFLAC 1.2.1 (UTC 2007-09-17)
Language                                 : Chinese
Default                                  : Yes
Forced                                   : No

Text #1
ID                                       : 3
Format                                   : UTF-8
Codec ID                                 : S_TEXT/UTF8
Codec ID/Info                            : UTF-8 Plain Text
Duration                                 : 1 h 26 min
Bit rate                                 : 32 b/s
Count of elements                        : 597
Stream size                              : 20.6 KiB (0%)
Title                                    : English
Language                                 : English
Default                                  : Yes
Forced                                   : Yes

Text #2
ID                                       : 4
Format                                   : PGS
Muxing mode                              : zlib
Codec ID                                 : S_HDMV/PGS
Codec ID/Info                            : Picture based subtitle format used on BDs/HD-DVDs
Duration                                 : 1 h 26 min
Bit rate                                 : 18.0 kb/s
Count of elements                        : 1948
Stream size                              : 11.2 MiB (0%)
Title                                    : Japanese 1
Language                                 : Japanese
Default                                  : No
Forced                                   : No

Text #3
ID                                       : 5
Format                                   : PGS
Muxing mode                              : zlib
Codec ID                                 : S_HDMV/PGS
Codec ID/Info                            : Picture based subtitle format used on BDs/HD-DVDs
Duration                                 : 1 h 26 min
Bit rate                                 : 20.8 kb/s
Count of elements                        : 1948
Stream size                              : 12.9 MiB (0%)
Title                                    : Japanese 2
Language                                 : Japanese
Default                                  : No
Forced                                   : No

Text #4
ID                                       : 6
Format                                   : PGS
Muxing mode                              : zlib
Codec ID                                 : S_HDMV/PGS
Codec ID/Info                            : Picture based subtitle format used on BDs/HD-DVDs
Duration                                 : 1 h 26 min
Bit rate                                 : 19.0 kb/s
Count of elements                        : 1948
Stream size                              : 11.7 MiB (0%)
Title                                    : Japanese 3
Language                                 : Japanese
Default                                  : No
Forced                                   : No

Menu
00:00:00.000                             : en:00:00:00.000
00:15:02.902                             : en:00:15:02.902
00:19:05.244                             : en:00:19:05.244
00:29:45.384                             : en:00:29:45.384
00:32:41.593                             : en:00:32:41.593
00:43:22.066                             : en:00:43:22.066
00:56:26.016                             : en:00:56:26.016
01:05:38.401                             : en:01:05:38.401
01:12:02.652                             : en:01:12:02.652
01:15:41.704                             : en:01:15:41.704
01:20:04.466                             : en:01:20:04.466
01:27:55.237                             : en:01:27:55.237

5bd7c9f99bbc8a5847d9fafcbef8caa7.jpg





                                                                                                                                                                                                        
                                                                                                                                                                                                                                                                                                                                                                                                                                                                                                                                                                                                                                                                                                                                                                                                                                                        
5493887b2d1636bd63afd345d6effa3c.torrent (18.93 KB, 下载次数: 0)

回复

使用道具 举报

小黑屋|西西论坛

本网站所有资源来自网络,如无意中侵犯了您的权益,请发邮件至 [email protected],立即清除相关链接

GMT+8, 2021-9-19 09:55 , Processed in 0.126750 second(s), 17 queries .

Powered by Discuz! X3.2

© 2001-2013 Comsenz Inc.

快速回复 返回顶部 返回列表