西西论坛

 找回密码
 立即注册
搜索

[BD-4K] 野兽之日 The.Day.of.the.Beast.1995.SPANISH.2160p.BluRay.x265.10bit.SDR.DTS-HD.MA ...

[复制链接]
电影首发 发表于 2021-4-10 15:58:47 | 显示全部楼层 |阅读模式
-->
帖子完整标题:野兽之日 The.Day.of.the.Beast.1995.SPANISH.2160p.BluRay.x265.10bit.SDR.DTS-HD.MA.5.1-SWTYBLZ 43.42GB



[/url]

◎译  名 野兽之日/The Day of the Beast/野兽日/魔鬼之日/魔鬼今晚诞生
◎片  名 El día de la bestia
◎年  代 1995
◎产  地 西班牙,意大利
◎类  别 喜剧 / 惊悚 / 恐怖 / 犯罪
◎语  言 西班牙语
◎上映日期 1995-09-15
◎IMDb评分  7.4/10 from 17946 users
◎  
◎豆瓣评分 7.2/10 from 381 users
◎ 
◎片  长 103 分钟
◎导  演 艾利克斯·德·拉·伊格莱希亚 álex de la Iglesia
◎编  剧 艾利克斯·德·拉·伊格莱希亚 álex de la Iglesia / 豪尔赫·格力加耶切瓦利亚 Jorge Guerricaechevarría
◎主  演 亚历克斯·安克吕罗 álex Angulo
       特雷勒·帕维斯 Terele Pávez
       娜塔丽·塞瑟尼亚 Nathalie Sese?a
       安东尼奥·德·拉·托雷 Antonio de la Torre
       弗朗西斯科·梅斯特 Francisco Maestre
       José Sáinz
       恩里克·维纶 Enrique Villén
       Lourdes Bartolomé

◎标  签 西班牙 | 黑色幽默 | Cult | 西班牙电影 | 喜剧 | 恐怖 | 1995 | 西班牙式黑色幽默

◎简  介

  影片开头一段,神父安格尔不断犯罪,笨拙但又顺利地成了一个“恶棍”,这些情节既令人好笑又能引发悬念。直到神父向书店老板解释,我们才知道原来他这样做是为了和撒旦联系,以便制止世界末日的到来。 在神学上造诣颇深的神父安格尔研究神学多年发现了一个天大的秘密,那就是基督的敌人将在1995年12月25日的马德里出现,而那一天将是世界末日。 将近圣诞节了,神父来到正在到处被暴力“清洗”的混乱的马德里,他从一个快被烧死的人身上偷了钱包和身份证,顺手偷了一个箱子,又来到音像店,要看店的大汉琼斯给他找几张重金属唱片。琼斯和他颇为投缘,不仅送给他一个名叫“撒旦”地下乐队的小样,而且还给了乐队演唱的场所“地狱”和他自己母亲开的旅馆的地址。 安格尔来到旅馆住了下来,然后去了书店,神父找到一个当红的预知未来的电视节目“黑暗地带”的主持人卡文出的一本书,要把它偷走。在书店管理者面前,他宣布了世界末日的到来,并告诉对方自己就是要做个恶棍,以便能和撒旦取得联系,然后在仪式上杀死它。然后,神父打昏要给精神病院打电话的老板,逃了出来。 安格尔要琼斯帮忙寻找魔鬼,两个人跟踪卡文,闯进他的住处,然后要这个电视上的先知告诉他如何投靠魔鬼。安格尔不惜使用暴力,卡文无奈只能胡乱招供,要他去找处女之血。安格尔用安眠药从琼斯女友身上得到处女之血,又打昏了琼斯的母亲,才回到卡文的住处。一番仪式过后,什么结果都没有,卡文承认自己刚才是胡乱说的,而就在这时,一只“神圣”的蟑螂出现,接着就是代表魔鬼的怪兽出现又离开。 深信了神父观点的卡文也决定和他们一起寻找魔鬼,突然有人疯狂撞门,三个人从窗户逃了出去,卡文不慎摔在灯箱上,神父和琼斯逃走了。卡文被救下来之后,连忙赶到电视台,要求停播圣诞节目,播出自己的特别节目,就在他和制片人争吵的时候,突然发现了自己书中记载的魔鬼的签名。 安格尔独自找到“地狱”,却被人误会打昏,琼斯把他救了出来。两人看到卡文的特别节目,打通了卡文的热线电话,狂热的卡文在电视上宣布了世界末日的到来。卡文找到两人,把自己的发现告诉他们,带他们来到“魔鬼的教堂”——一所还没完全盖好的大厦。 在大厦里,他们果然听到婴儿的哭声,但暴力“清洗”马德里的暴徒出现,打倒了卡文,把安格尔和琼斯逼上了楼顶。琼斯要安格尔藏起来,安格尔看到了暴徒幻化成魔鬼,把琼斯从楼上丢下去。安格尔逃回楼下,看到卡文正要被焚烧,他用捡来的手枪击毙了暴徒,救出了卡文。安格尔看到了一旁已经被枪杀的一对穷人和新出生的婴儿,又回身击毙了扑上来的暴徒-魔鬼。 九个月后,“黑暗地带”换了一个主持人恢复播出,远方的卡文却向安格尔感叹着自己拯救世界却没有人知道。 用这样短的篇幅去描述这样一部影片,几乎是不太可能的,影片中复杂的情节转折只能被忽略掉。这是一部现代感很强的影片,剧情复杂节奏紧凑,但同时这也是一部有着西班牙传统的影片,色调明快,人物个性极度鲜明,而且主角安格尔的身上显然就是唐·吉诃德的影子,而力大无脑的琼斯,当然就是桑丘。两个人再加上卡文,三个人陷入一种迷幻的激情之中,荒谬地试图拯救世界。影片并没有在这个情节的现实性上作太多文章,也许这是一个荒诞的“神学”故事,也许是安格尔的狂热和卡文的迷幻剂在作怪,反正我们看到了一部精彩的影片,谁还会管那么多。 影片导演伊格莱西亚,是西班牙新近崛起的年轻导演,我们从这部影片中就可以看到他丰富的想象力,和操控复杂故事的叙事能力。影片获得西班牙戈雅奖最佳导演奖,从此开辟了伊格莱西亚的电影道路。但伊格莱西亚似乎有些底气不足,在下一部影片《狂野双辣》中没有更进一步展开他丰富的想象,而是陷入了以情节和视觉效果取胜的心态之中。
Video
ID                                       : 1
Format                                   : HEVC
Format/Info                              : High Efficiency Video Coding
Format profile                           : Main @High
Codec ID                                 : V_MPEGH/ISO/HEVC
Duration                                 : 1 h 43 min
Bit rate                                 : 53.2 Mb/s
Width                                    : 3 840 pixels
Height                                   : 2 076 pixels
Display aspect ratio                     : 1.85:1
Frame rate mode                          : Constant
Frame rate                               : 23.976 (24000/1001/189150) FPS
Color space                              : YUV
Chroma subsampling                       : 4:2:0
Bit depth                                : 10 bits
Bits/(Pixel*Frame)                       : 0.278
Stream size                              : 38.6 GiB (89%)
Writing library                          : x265 3.0ed72af837053:[Windows][GCC 8.2.0][64 bit] 10bit
Encoding settings                        : cpuid=1111039 / frame-threads=6 / numa-pools=40 / wpp / no-pmode / no-pme / no-psnr / no-ssim / log-level=2 / input-csp=1 / input-res=3840x2076 / interlace=0 / total-frames=149411 / level-idc=51 / high-tier=1 / uhd-bd=0 / ref=3 / no-allow-non-conformance / repeat-headers / annexb / aud / hrd / info / hash=0 / no-temporal-layers / no-open-gop / min-keyint=1 / keyint=24 / gop-lookahead=0 / bframes=4 / b-adapt=2 / b-pyramid / bframe-bias=0 / rc-lookahead=25 / lookahead-slices=4 / scenecut=40 / radl=0 / no-splice / no-intra-refresh / ctu=64 / min-cu-size=8 / no-rect / no-amp / max-tu-size=32 / tu-inter-depth=1 / tu-intra-depth=1 / limit-tu=0 / rdoq-level=0 / dynamic-rd=0.00 / no-ssim-rd / signhide / no-tskip / nr-intra=0 / nr-inter=0 / no-constrained-intra / strong-intra-smoothing / max-merge=2 / limit-refs=3 / no-limit-modes / me=1 / subme=2 / merange=57 / temporal-mvp / weightp / no-weightb / no-analyze-src-pics / deblock=0:0 / no-sao / no-sao-non-deblock / rd=3 / no-early-skip / rskip / no-fast-intra / no-tskip-fast / no-cu-lossless / no-b-intra / no-splitrd-skip / rdpenalty=0 / psy-rd=2.00 / psy-rdoq=0.00 / no-rd-refine / no-lossless / cbqpoffs=0 / crqpoffs=0 / rc=crf / crf=18.0 / qcomp=0.60 / qpstep=4 / stats-write=0 / stats-read=0 / vbv-maxrate=160000 / vbv-bufsize=160000 / vbv-init=0.9 / crf-max=0.0 / crf-min=0.0 / ipratio=1.40 / pbratio=1.30 / aq-mode=1 / aq-strength=1.00 / cutree / zone-count=0 / no-strict-cbr / qg-size=32 / no-rc-grain / qpmax=69 / qpmin=0 / no-const-vbv / sar=1 / overscan=0 / videoformat=5 / range=0 / colorprim=2 / transfer=2 / colormatrix=2 / chromaloc=0 / display-window=0 / max-cll=0,0 / min-luma=0 / max-luma=1023 / log2-max-poc-lsb=8 / vui-timing-info / vui-hrd-info / slices=1 / opt-qp-pps / opt-ref-list-length-pps / no-multi-pass-opt-rps / scenecut-bias=0.05 / no-opt-cu-delta-qp / no-aq-motion / no-hdr / no-hdr-opt / no-dhdr10-opt / no-idr-recovery-sei / analysis-reuse-level=5 / scale-factor=0 / refine-intra=0 / refine-inter=0 / refine-mv=0 / refine-ctu-distortion=0 / no-limit-sao / ctu-info=0 / no-lowpass-dct / refine-analysis-type=0 / copy-pic=1 / max-ausize-factor=1.0 / no-dynamic-refine / no-single-sei / no-hevc-aq / qp-adaptation-range=1.00
Default                                  : Yes
Forced                                   : No

Audio #1
ID                                       : 2
ID in the original source medium         : 4353 (0x1101)
Format                                   : DTS XLL
Format/Info                              : Digital Theater Systems
Commercial name                          : DTS-HD Master Audio
Codec ID                                 : A_DTS
Duration                                 : 1 h 43 min
Bit rate mode                            : Variable
Bit rate                                 : 4 024 kb/s
Channel(s)                               : 6 channels
Channel layout                           : C L R Ls Rs LFE
Sampling rate                            : 48.0 kHz
Frame rate                               : 93.750 FPS (512 SPF)
Bit depth                                : 24 bits
Compression mode                         : Lossless
Stream size                              : 2.92 GiB (7%)
Title                                    : DTS-HD MA 5.1
Language                                 : Spanish
Default                                  : Yes
Forced                                   : No
Original source medium                   : Blu-ray

Audio #2
ID                                       : 3
Format                                   : AC-3
Format/Info                              : Audio Coding 3
Commercial name                          : Dolby Digital
Codec ID                                 : A_AC3
Duration                                 : 1 h 43 min
Bit rate mode                            : Constant
Bit rate                                 : 640 kb/s
Channel(s)                               : 6 channels
Channel layout                           : L R C LFE Ls Rs
Sampling rate                            : 48.0 kHz
Frame rate                               : 31.250 FPS (1536 SPF)
Compression mode                         : Lossy
Stream size                              : 476 MiB (1%)
Title                                    : DD 5.1
Language                                 : Spanish
Service kind                             : Complete Main
Default                                  : No
Forced                                   : No

Audio #3
ID                                       : 4
ID in the original source medium         : 4354 (0x1102)
Format                                   : DTS XLL
Format/Info                              : Digital Theater Systems
Commercial name                          : DTS-HD Master Audio
Codec ID                                 : A_DTS
Duration                                 : 1 h 43 min
Bit rate mode                            : Variable
Bit rate                                 : 1 733 kb/s
Channel(s)                               : 2 channels
Channel layout                           : L R
Sampling rate                            : 48.0 kHz
Frame rate                               : 93.750 FPS (512 SPF)
Bit depth                                : 16 bits
Compression mode                         : Lossless
Stream size                              : 1.26 GiB (3%)
Title                                    : DTS-HD MA 2.0
Language                                 : English
Default                                  : No
Forced                                   : No
Original source medium                   : Blu-ray

Text #1
ID                                       : 5
Format                                   : UTF-8
Codec ID                                 : S_TEXT/UTF8
Codec ID/Info                            : UTF-8 Plain Text
Duration                                 : 1 h 39 min
Bit rate                                 : 50 b/s
Count of elements                        : 1288
Stream size                              : 36.9 KiB (0%)
Title                                    : English-SRT
Language                                 : English
Default                                  : Yes
Forced                                   : No

Text #2
ID                                       : 6
ID in the original source medium         : 4768 (0x12A0)
Format                                   : PGS
Muxing mode                              : zlib
Codec ID                                 : S_HDMV/PGS
Codec ID/Info                            : Picture based subtitle format used on BDs/HD-DVDs
Duration                                 : 1 h 39 min
Bit rate                                 : 30.0 kb/s
Count of elements                        : 2511
Stream size                              : 21.3 MiB (0%)
Title                                    : English-PGS
Language                                 : English
Default                                  : No
Forced                                   : No
Original source medium                   : Blu-ray

Menu
00:00:00.000                             : en:Chapter 01
00:08:01.564                             : en:Chapter 02
00:21:22.155                             : en:Chapter 03
00:32:59.352                             : en:Chapter 04
00:43:30.232                             : en:Chapter 05
01:00:13.234                             : en:Chapter 06
01:17:01.325                             : en:Chapter 07
01:31:40.995                             : en:Chapter 08




                                                                                                                                                                                                        
                                                                                                                                                                                                                                                                                                                                                                                                                                                                                                                                                                                                                                                                                                                                                                                                                                                        
2542833f56baf7289e2cf219dbe06c83.zip (109.34 KB, 下载次数: 0)

回复

使用道具 举报

小黑屋|西西论坛

本网站所有资源来自网络,如无意中侵犯了您的权益,请发邮件至 [email protected],立即清除相关链接

GMT+8, 2021-9-26 21:04 , Processed in 0.127364 second(s), 17 queries .

Powered by Discuz! X3.2

© 2001-2013 Comsenz Inc.

快速回复 返回顶部 返回列表