西西论坛

 找回密码
 立即注册
搜索

随机暴力行动 Random.Acts.of.Violence.2019.720p.BluRay.x264.DTS-MT 4.18GB

[复制链接]
-->
帖子完整标题:随机暴力行动 Random.Acts.of.Violence.2019.720p.BluRay.x264.DTS-MT 4.18GB


[/url]

◎译  名 随机暴力行动
◎片  名 Random Acts of Violence
◎年  代 2019
◎产  地 美国
◎类  别 恐怖
◎语  言 英语
◎上映日期 2019-09-19(奥斯汀奇幻电影节) / 2020-07-31(加拿大网络) / 2020-08-20(美国网络)
◎IMDb评分  5.2/10 from 1438 users
◎  
◎豆瓣评分 5.0/10 from 201 users
◎ 
◎片  长 80分钟
◎导  演 杰伊·巴鲁切尔 Jay Baruchel
◎编  剧 杰伊·巴鲁切尔 Jay Baruchel / 吉米?帕尔默蒂 Jimmy Palmiotti
◎主  演 杰伊·巴鲁切尔 Jay Baruchel
       杰西·威廉姆斯 Jesse Williams
       乔丹娜·布鲁斯特 Jordana Brewster
       妮娅姆·威尔逊 Niamh Wilson

◎标  签 血腥 | 恐怖 | 2020 | 美国 | 犯罪 | 重口 | 美国电影 | 犯罪惊悚

◎简  介

  杰西·威廉姆斯、乔丹娜·布鲁斯特加盟,杰伊·巴鲁切尔自导自演新片[随机暴力行动](Random Acts Of Violence,暂译)。本片根据同名漫画小说改编,将围绕漫画作者托德(威廉姆饰)、他的女友(布鲁斯特饰)、他的助理(妮娅姆·威尔逊饰)、他的好朋友(巴鲁切尔饰)展开。在从多伦多到纽约参加动漫展的路上,人们开始像托德漫画中的方式被杀害。很明显,是有一个狂热粉丝在搞事......本片正在拍摄,将持续到9月。
Video
ID                                       : 1
Format                                   : AVC
Format/Info                              : Advanced Video Codec
Format profile                           :
Format settings                          : CABAC / 12 Ref Frames
Format settings, CABAC                   : Yes
Format settings, Reference frames        : 12 frames
Codec ID                                 : V_MPEG4/ISO/AVC
Duration                                 : 1 h 20 min
Bit rate                                 : 5 871 kb/s
Width                                    : 1 280 pixels
Height                                   : 540 pixels
Display aspect ratio                     : 2.40:1
Frame rate mode                          : Constant
Frame rate                               : 23.976 (24000/1001/189150) FPS
Color space                              : YUV
Chroma subsampling                       : 4:2:0
Bit depth                                : 8 bits
Scan type                                : Progressive
Bits/(Pixel*Frame)                       : 0.354
Stream size                              : 3.32 GiB (80%)
Writing library                          : x264 core 157 r2938 2b00a84  Mod
Encoding settings                        : cabac=1 / ref=12 / deblock=1:-3:-3 / analyse=0x3:0x133 / me=umh / subme=10 / psy=1 / psy_rd=1.05:0.00 / mixed_ref=1 / me_range=32 / chroma_me=1 / trellis=2 / 8x8dct=1 / cqm=0 / deadzone=21,11 / fast_pskip=0 / chroma_qp_offset=-2 / threads=12 / lookahead_threads=2 / sliced_threads=0 / nr=0 / decimate=0 / interlaced=0 / bluray_compat=0 / constrained_intra=0 / bframes=8 / b_pyramid=2 / b_adapt=2 / b_bias=0 / direct=3 / weightb=1 / open_gop=0 / weightp=2 / keyint=250 / keyint_min=24 / scenecut=40 / intra_refresh=0 / rc_lookahead=250 / rc=crf / mbtree=0 / crf=16.8 / qcomp=0.60 / qpmin=0 / qpmax=69 / qpstep=4 / vbv_maxrate=62500 / vbv_bufsize=78125 / crf_max=0.0 / nal_hrd=none / filler=0 / ip_ratio=1.30 / pb_ratio=1.20 / aq=3:0.80
Language                                 : English
Default                                  : Yes
Forced                                   : No
Color range                              : Limited
Color primaries                          : BT.709
Matrix coefficients                      : BT.709

Audio
ID                                       : 2
Format                                   : DTS
Format/Info                              : Digital Theater Systems
Codec ID                                 : A_DTS
Duration                                 : 1 h 20 min
Bit rate mode                            : Constant
Bit rate                                 : 1 509 kb/s
Channel(s)                               : 6 channels
Channel layout                           : C L R Ls Rs LFE
Sampling rate                            : 48.0 kHz
Frame rate                               : 93.750 FPS (512 SPF)
Bit depth                                : 16 bits
Compression mode                         : Lossy
Stream size                              : 874 MiB (20%)
Language                                 : English
Default                                  : Yes
Forced                                   : No

Text
ID                                       : 3
Format                                   : UTF-8
Codec ID                                 : S_TEXT/UTF8
Codec ID/Info                            : UTF-8 Plain Text
Duration                                 : 1 h 15 min
Bit rate                                 : 67 b/s
Count of elements                        : 1235
Stream size                              : 37.5 KiB (0%)
Title                                    : SRT
Language                                 : English
Default                                  : Yes
Forced                                   : No

Menu
00:00:00.000                             : en:Chapter 01
00:09:17.265                             : en:Chapter 02
00:18:50.379                             : en:Chapter 03
00:27:17.511                             : en:Chapter 04
00:36:37.278                             : en:Chapter 05
00:44:20.449                             : en:Chapter 06
00:54:42.613                             : en:Chapter 07
01:01:09.374                             : en:Chapter 08
01:13:43.044                             : en:Chapter 09
[/url][/url]



                                                                                                                                                                                                        
                                                                                                                                                                                                                                                                                                                                                                                                                                                                                                                                                                                                                                                                                                                                                                                                                                                        
fa548934181b5f381ee78dd9a4461ff2.zip (42.41 KB, 下载次数: 0)

回复

使用道具 举报

小黑屋|西西论坛

本网站所有资源来自网络,如无意中侵犯了您的权益,请发邮件至 [email protected],立即清除相关链接

GMT+8, 2021-2-28 21:04 , Processed in 0.090767 second(s), 23 queries .

Powered by Discuz! X3.2

© 2001-2013 Comsenz Inc.

快速回复 返回顶部 返回列表