西西论坛

 找回密码
 立即注册
搜索

夺魂连线/60分鐘招魂直播 Host.2020.720p.BluRay.x264-PiGNUS 2.39GB

[复制链接]
电影首发 发表于 2021-2-5 20:16:28 | 显示全部楼层 |阅读模式
-->
帖子完整标题:夺魂连线/60分鐘招魂直播 Host.2020.720p.BluRay.x264-PiGNUS 2.39GB


[/url]

◎译  名 夺魂连线/60分鐘招魂直播(港)/宿主
◎片  名 Host
◎年  代 2020
◎产  地 英国
◎类  别 恐怖
◎语  言 英语
◎上映日期 2020-07-30(美国)
◎IMDb评分  6.6/10 from 14676 users
◎  
◎豆瓣评分 6.3/10 from 5384 users
◎ 
◎片  长 56分钟
◎导  演 罗布·萨维奇 Rob Savage
◎编  剧 杰玛·赫莉 Gemma Hurley / 罗布·萨维奇 Rob Savage / 杰德·谢帕德 Jed Shepherd
◎主  演 海莉·毕晓普 Haley Bishop
       杰玛·摩尔 Jemma Moore
       艾玛·路易斯·韦伯 Emma Louise Webb
       拉迪娜·德兰多娃 Radina Drandova
       卡罗琳·沃德 Caroline Ward
       艾伦·埃默里斯 Alan Emrys
       帕特里克·沃德 Patrick Ward
       爱德华·利纳德 Edward Linard
       金妮·洛夫特豪斯 Jinny Lofthouse
       塞兰·巴克斯特 Seylan Baxter
       杰克·布莱顿 Jack Brydon
       詹姆斯·斯旺顿 James Swanton
       艾玛·路易斯·廷尼斯伍德 Emma Louise Tinniswood

◎标  签 恐怖 | 惊悚 | 英国 | 伪纪录片 | 灵异 | 2020 | 网络 | 剧情

◎简  介

  六名好友在居家隔离期找了一位灵媒,想要通过Zoom进行降灵仪式。然而事情的发展远超他们的想象,一个恶灵似乎回应了他们的召唤,并且侵入了每个人的家中……

◎获奖情况

  第23届英国独立电影奖 ?(2020)
  制片突破(提名)
  最佳剪辑(提名)
  最佳音效(提名)
Video
ID                                       : 1
Format                                   : AVC
Format/Info                              : Advanced Video Codec
Format profile                           :
Format settings                          : CABAC / 8 Ref Frames
Format settings, CABAC                   : Yes
Format settings, Reference frames        : 8 frames
Codec ID                                 : V_MPEG4/ISO/AVC
Duration                                 : 1 h 7 min
Bit rate                                 : 4 390 kb/s
Width                                    : 1 280 pixels
Height                                   : 720 pixels
Display aspect ratio                     : 16:9
Frame rate mode                          : Constant
Frame rate                               : 23.976 (24000/1001/189150) FPS
Color space                              : YUV
Chroma subsampling                       : 4:2:0
Bit depth                                : 8 bits
Scan type                                : Progressive
Bits/(Pixel*Frame)                       : 0.199
Stream size                              : 2.08 GiB (87%)
Writing library                          : x264 core 161 r3043 59c0609
Encoding settings                        : cabac=1 / ref=8 / deblock=1:-3:-3 / analyse=0x3:0x133 / me=umh / subme=9 / psy=1 / psy_rd=1.00:0.00 / mixed_ref=1 / me_range=16 / chroma_me=1 / trellis=2 / 8x8dct=1 / cqm=0 / deadzone=21,11 / fast_pskip=1 / chroma_qp_offset=-2 / threads=22 / lookahead_threads=1 / sliced_threads=0 / nr=0 / decimate=1 / interlaced=0 / bluray_compat=0 / constrained_intra=0 / bframes=3 / b_pyramid=2 / b_adapt=2 / b_bias=0 / direct=3 / weightb=1 / open_gop=0 / weightp=2 / keyint=250 / keyint_min=23 / scenecut=40 / intra_refresh=0 / rc_lookahead=60 / rc=crf / mbtree=1 / crf=14.5 / qcomp=0.60 / qpmin=0 / qpmax=69 / qpstep=4 / ip_ratio=1.40 / aq=1:1.00
Default                                  : Yes
Forced                                   : No

Audio
ID                                       : 2
Format                                   : FLAC
Format/Info                              : Free Lossless Audio Codec
Codec ID                                 : A_FLAC
Duration                                 : 1 h 7 min
Bit rate mode                            : Variable
Bit rate                                 : 624 kb/s
Channel(s)                               : 2 channels
Channel layout                           : L R
Sampling rate                            : 48.0 kHz
Frame rate                               : 11.719 FPS (4096 SPF)
Bit depth                                : 24 bits
Compression mode                         : Lossless
Stream size                              : 303 MiB (12%)
Writing library                          : libFLAC 1.2.1 (UTC 2007-09-17)
Language                                 : English
Default                                  : Yes
Forced                                   : No

Text
ID                                       : 3
Format                                   : PGS
Muxing mode                              : zlib
Codec ID                                 : S_HDMV/PGS
Codec ID/Info                            : Picture based subtitle format used on BDs/HD-DVDs
Duration                                 : 1 h 7 min
Bit rate                                 : 29.5 kb/s
Count of elements                        : 2365
Stream size                              : 14.2 MiB (1%)
Title                                    : English SDH
Language                                 : English
Default                                  : No
Forced                                   : No

Menu
00:00:00.000                             : en:Chapter 01
00:12:16.819                             : en:Chapter 02
00:24:43.023                             : en:Chapter 03
00:37:40.633                             : en:Chapter 04
00:45:36.651                             : en:Chapter 05
01:07:29.462                             : en:Chapter 06
01:07:56.489                             : en:Chapter 07
[/url]



                                                                                                                                                                                                        
                                                                                                                                                                                                                                                                                                                                                                                                                                                                                                                                                                                                                                                                                                                                                                                                                                                        
120bee898b032d5d1547ed394176f864.zip (24.5 KB, 下载次数: 0)

回复

使用道具 举报

小黑屋|西西论坛

本网站所有资源来自网络,如无意中侵犯了您的权益,请发邮件至 [email protected],立即清除相关链接

GMT+8, 2021-3-9 08:18 , Processed in 0.088409 second(s), 23 queries .

Powered by Discuz! X3.2

© 2001-2013 Comsenz Inc.

快速回复 返回顶部 返回列表