西西论坛

 找回密码
 立即注册
搜索

他们来自沼泽地:威廉·格雷菲的电影 They.Came.from.the.Swamp.The.... ...

[复制链接]
电影首发 发表于 2021-2-5 20:16:28 | 显示全部楼层 |阅读模式
-->
帖子完整标题:他们来自沼泽地:威廉·格雷菲的电影 They.Came.from.the.Swamp.The.Films.of.William.Grefe.2016.720p.BluRay.x264-ORBS 6.95GB


[/url]

◎译  名 他们来自沼泽地:威廉·格雷菲的电影
◎片  名 They Came from the Swamp: The Films of William Grefé
◎年  代 2016
◎产  地 美国
◎类  别 纪录片
◎语  言 英语
◎上映日期 2016-04-19(美国)
◎IMDb评分  7.4/10 from 32 users
◎  
◎豆瓣评分 /10 from 0 users
◎ 
◎片  长 126分钟
◎主  演 威廉·格雷菲 William Grefe

◎简  介

  Savage. Sadistic. Thrill hungry. When it came to independent filmmaking in the sunshine state, William Grefé was the wildest of the wild. Now, the untold story of Florida's most daring moviemaker comes to the screen.
Video
ID                                       : 1
Format                                   : AVC
Format/Info                              : Advanced Video Codec
Format profile                           :
Format settings                          : CABAC / 9 Ref Frames
Format settings, CABAC                   : Yes
Format settings, Reference frames        : 9 frames
Codec ID                                 : V_MPEG4/ISO/AVC
Duration                                 : 2 h 7 min
Bit rate                                 : 6 582 kb/s
Width                                    : 1 280 pixels
Height                                   : 720 pixels
Display aspect ratio                     : 16:9
Frame rate mode                          : Constant
Frame rate                               : 29.970 (30000/1001/189150) FPS
Color space                              : YUV
Chroma subsampling                       : 4:2:0
Bit depth                                : 8 bits
Scan type                                : Progressive
Bits/(Pixel*Frame)                       : 0.238
Stream size                              : 5.84 GiB (84%)
Writing library                          : x264 core 161 r3027 4121277
Encoding settings                        : cabac=1 / ref=9 / deblock=1:-3:-3 / analyse=0x3:0x133 / me=umh / subme=10 / psy=1 / psy_rd=1.20:0.00 / mixed_ref=1 / me_range=24 / chroma_me=1 / trellis=2 / 8x8dct=1 / cqm=0 / deadzone=21,11 / fast_pskip=0 / chroma_qp_offset=-2 / threads=6 / lookahead_threads=1 / sliced_threads=0 / nr=0 / decimate=0 / interlaced=0 / bluray_compat=0 / constrained_intra=0 / bframes=8 / b_pyramid=2 / b_adapt=2 / b_bias=0 / direct=3 / weightb=1 / open_gop=0 / weightp=2 / keyint=250 / keyint_min=25 / scenecut=40 / intra_refresh=0 / rc_lookahead=60 / rc=crf / mbtree=1 / crf=19.0 / qcomp=0.60 / qpmin=0 / qpmax=69 / qpstep=4 / ip_ratio=1.40 / aq=3:0.90
Default                                  : Yes
Forced                                   : No
Color range                              : Limited
Matrix coefficients                      : BT.709

Audio
ID                                       : 2
Format                                   : FLAC
Format/Info                              : Free Lossless Audio Codec
Codec ID                                 : A_FLAC
Duration                                 : 2 h 7 min
Bit rate mode                            : Variable
Bit rate                                 : 1 250 kb/s
Channel(s)                               : 2 channels
Channel layout                           : L R
Sampling rate                            : 48.0 kHz
Frame rate                               : 11.719 FPS (4096 SPF)
Bit depth                                : 24 bits
Compression mode                         : Lossless
Stream size                              : 1.11 GiB (16%)
Writing library                          : libFLAC 1.3.2 (UTC 2017-01-01)
Language                                 : English
Default                                  : Yes
Forced                                   : No

Menu
00:00:00.000                             : en:Chapter 01
00:13:07.020                             : en:Chapter 02
00:23:50.963                             : en:Chapter 03
00:33:23.368                             : en:Chapter 04
00:42:55.740                             : en:Chapter 05
00:51:34.491                             : en:Chapter 06
01:02:36.319                             : en:Chapter 07
01:13:02.378                             : en:Chapter 08
01:24:57.859                             : en:Chapter 09
01:35:23.918                             : en:Chapter 10
01:45:49.977                             : en:Chapter 11
01:58:03.343                             : en:Chapter 12
[/url]



                                                                                                                                                                                                        
                                                                                                                                                                                                                                                                                                                                                                                                                                                                                                                                                                                                                                                                                                                                                                                                                                                        
77c0b20d028f5a9abb3c1ae6cb892e80.zip (35.57 KB, 下载次数: 0)

回复

使用道具 举报

小黑屋|西西论坛

本网站所有资源来自网络,如无意中侵犯了您的权益,请发邮件至 [email protected],立即清除相关链接

GMT+8, 2021-3-9 08:08 , Processed in 0.090641 second(s), 23 queries .

Powered by Discuz! X3.2

© 2001-2013 Comsenz Inc.

快速回复 返回顶部 返回列表