西西论坛

 找回密码
 立即注册
搜索

别西卜 Belzebuth.2017.1080p.BluRay.x264.DD5.1-NING 10.05GB

[复制链接]
电影首发 发表于 2021-2-3 23:23:43 | 显示全部楼层 |阅读模式
-->
帖子完整标题:别西卜 Belzebuth.2017.1080p.BluRay.x264.DD5.1-NING 10.05GB


[/url]

◎译  名 别西卜
◎片  名 Belzebuth
◎年  代 2018
◎产  地 墨西哥
◎类  别 恐怖
◎语  言 英语,西班牙语
◎上映日期 2018-04-04(布鲁塞尔奇幻电影节) / 2019-01-11(墨西哥)
◎IMDb评分  6/10 from 2108 users
◎  
◎豆瓣评分 6.3/10 from 387 users
◎ 
◎片  长 104分钟
◎主  演 塔特·艾灵顿 Tate Ellington
       托宾·贝尔 Tobin Bell
       华金·科西奥 Joaquín Cosio
       Giovanna Zacarías
       Aida López
       何塞·赛法米 José Sefami
       诺玛·安吉里卡 Norma Angélica
       奥罗拉·吉尔 Aurora Gil
       Alondra Benitez
       尤恩·帕尔多 Yunuen Pardo
       利亚姆·维拉 Liam Villa
       Enoc Lea?o

◎标  签 恐怖 | 驱魔 | 宗教 | 墨西哥 | 惊悚 | 灵异 | 恶魔/驱魔系列 | 2018

◎简  介

  故事发生在美国墨西哥边界,警方调查一起儿童神秘死亡事件,居然发现与别西卜有关联,由此惊动了梵蒂冈,一场驱魔能够解决所以的问题吗?
Video
ID                                       : 1
Format                                   : AVC
Format/Info                              : Advanced Video Codec
Format profile                           :
Format settings                          : CABAC / 5 Ref Frames
Format settings, CABAC                   : Yes
Format settings, Reference frames        : 5 frames
Codec ID                                 : V_MPEG4/ISO/AVC
Duration                                 : 1 h 53 min
Bit rate                                 : 12.3 Mb/s
Width                                    : 1 920 pixels
Height                                   : 802 pixels
Display aspect ratio                     : 2.40:1
Frame rate mode                          : Constant
Frame rate                               : 23.976 (24000/1001/189150) FPS
Color space                              : YUV
Chroma subsampling                       : 4:2:0
Bit depth                                : 8 bits
Scan type                                : Progressive
Bits/(Pixel*Frame)                       : 0.332
Stream size                              : 9.73 GiB (97%)
Writing library                          : x264 core 157 r2935 545de2f
Encoding settings                        : cabac=1 / ref=5 / deblock=1:-3:-3 / analyse=0x3:0x133 / me=umh / subme=10 / psy=1 / psy_rd=1.00:0.00 / mixed_ref=1 / me_range=32 / chroma_me=1 / trellis=2 / 8x8dct=1 / cqm=0 / deadzone=21,11 / fast_pskip=0 / chroma_qp_offset=-2 / threads=25 / lookahead_threads=6 / sliced_threads=0 / nr=0 / decimate=0 / interlaced=0 / bluray_compat=0 / constrained_intra=0 / bframes=16 / b_pyramid=2 / b_adapt=2 / b_bias=0 / direct=3 / weightb=1 / open_gop=0 / weightp=2 / keyint=240 / keyint_min=24 / scenecut=40 / intra_refresh=0 / rc_lookahead=60 / rc=crf / mbtree=0 / crf=15.2 / qcomp=0.60 / qpmin=0 / qpmax=69 / qpstep=4 / vbv_maxrate=62500 / vbv_bufsize=78125 / crf_max=0.0 / nal_hrd=none / filler=0 / ip_ratio=1.40 / pb_ratio=1.30 / aq=2:1.00
Default                                  : Yes
Forced                                   : No
Color range                              : Limited
Color primaries                          : BT.709
Transfer characteristics                 : BT.709
Matrix coefficients                      : BT.709

Audio
ID                                       : 2
Format                                   : AC-3
Format/Info                              : Audio Coding 3
Commercial name                          : Dolby Digital
Codec ID                                 : A_AC3
Duration                                 : 1 h 53 min
Bit rate mode                            : Constant
Bit rate                                 : 384 kb/s
Channel(s)                               : 6 channels
Channel layout                           : L R C LFE Ls Rs
Sampling rate                            : 48.0 kHz
Frame rate                               : 31.250 FPS (1536 SPF)
Compression mode                         : Lossy
Stream size                              : 312 MiB (3%)
Language                                 : Spanish
Service kind                             : Complete Main
Default                                  : Yes
Forced                                   : No

Text #1
ID                                       : 3
Format                                   : UTF-8
Codec ID                                 : S_TEXT/UTF8
Codec ID/Info                            : UTF-8 Plain Text
Duration                                 : 1 h 40 min
Bit rate                                 : 16 b/s
Count of elements                        : 422
Stream size                              : 12.0 KiB (0%)
Title                                    : SRT
Language                                 : English
Default                                  : Yes
Forced                                   : No

Text #2
ID                                       : 4
Format                                   : PGS
Muxing mode                              : zlib
Codec ID                                 : S_HDMV/PGS
Codec ID/Info                            : Picture based subtitle format used on BDs/HD-DVDs
Duration                                 : 1 h 40 min
Bit rate                                 : 8 363 b/s
Count of elements                        : 848
Stream size                              : 6.02 MiB (0%)
Language                                 : English
Default                                  : No
Forced                                   : No

Text #3
ID                                       : 5
Format                                   : PGS
Muxing mode                              : zlib
Codec ID                                 : S_HDMV/PGS
Codec ID/Info                            : Picture based subtitle format used on BDs/HD-DVDs
Duration                                 : 1 h 44 min
Bit rate                                 : 11.8 kb/s
Count of elements                        : 1126
Stream size                              : 8.83 MiB (0%)
Language                                 : Spanish
Default                                  : No
Forced                                   : No

Menu
00:00:00.000                             : en:Chapter 01 (Why did the Vatican really expel you?)
00:01:54.906                             : en:Chapter 02 (Te vamos a estar esperando)
00:07:27.781                             : en:Chapter 03 (El penúltimo de la derecha)
00:10:33.132                             : en:Chapter 04 (So?é feo)
00:17:39.934                             : en:Chapter 05 (?Cómo eran los tatuajes?)
00:19:52.441                             : en:Chapter 06 (I want to be back by breakfast)
00:23:51.013                             : en:Chapter 07 (El narco no opera así, Demetrio)
00:30:03.927                             : en:Chapter 08 (Somos policías, no pendejos)
00:34:29.693                             : en:Chapter 09 (He wants to go to a fortune teller)
00:40:29.677                             : en:Chapter 10 (Things are going to get worse)
00:45:35.816                             : en:Chapter 11 (En México hasta los ateos son creyentes)
00:48:21.482                             : en:Chapter 12 (Did I scare you, my children?)
01:01:33.189                             : en:Chapter 13 (There is a divine plan)
01:07:38.763                             : en:Chapter 14 (It is a narco tunnel)
01:16:27.666                             : en:Chapter 15 (Everyone wants something)
01:24:27.062                             : en:Chapter 16 (?Sácale los ojos!)
01:28:47.614                             : en:Chapter 17 (Do not stop praying)
01:36:13.726                             : en:Chapter 18 (Lord Belzebuth!)
01:41:51.689                             : en:Chapter 19 (The blood of the boy on the dagger)
01:45:15.518                             : en:Chapter 20 (Créditos finales)
[/url]



                                                                                                                                                                                                        
                                                                                                                                                                                                                                                                                                                                                                                                                                                                                                                                                                                                                                                                                                                                                                                                                                                        
fa83b77f01782046cb7579664453f539.zip (50.87 KB, 下载次数: 0)

回复

使用道具 举报

小黑屋|西西论坛

本网站所有资源来自网络,如无意中侵犯了您的权益,请发邮件至 [email protected],立即清除相关链接

GMT+8, 2021-3-2 02:54 , Processed in 0.097938 second(s), 23 queries .

Powered by Discuz! X3.2

© 2001-2013 Comsenz Inc.

快速回复 返回顶部 返回列表