西西论坛

 找回密码
 立即注册
搜索

托博尔 Conquest.2019.RUSSIAN.1080p.BluRay.x264.DD5.1-HANDJOB 7.93GB

[复制链接]
电影首发 发表于 2021-2-3 23:23:43 | 显示全部楼层 |阅读模式
-->
帖子完整标题:托博尔 Conquest.2019.RUSSIAN.1080p.BluRay.x264.DD5.1-HANDJOB 7.93GB


[/url]

◎译  名 托博尔/Tobol
◎片  名 Тобол
◎年  代 2019
◎产  地 俄罗斯
◎类  别 剧情 / 历史
◎语  言 俄语
◎上映日期 2019-02-21(俄罗斯)
◎IMDb评分  5.9/10 from 849 users
◎  
◎豆瓣评分 6.4/10 from 102 users
◎ 
◎片  长 108分钟
◎导  演 伊戈尔·扎伊特塞夫 Igor Zaytsev
◎主  演 叶甫根尼·戴亚特洛夫 Evgeniy Dyatlov
       德米特里·迪尤舍夫 Dmitriy Dyuzhev
       亚历山大·拉扎列夫 Aleksandr Lazarev Ml.
       迪米特里·纳佐罗夫 Dmitriy Nazarov
       安德烈·伯科夫斯基 Andrey Burkovskiy
       埃克布兰·戴洛夫 Erkebulan Dairov

◎标  签 俄罗斯电影 | 战争 | 俄罗斯 | 历史 | 2019 | 电影 | 俄剧 | 苏俄

◎简  介

  一名年轻军官伊万·德马林被派往遥远的西伯利亚。 伊凡在这里遇到了他的爱人,并与当地王子勾结,共同寻找雅尔坎德的黄金。
Video
ID                                       : 1
Format                                   : AVC
Format/Info                              : Advanced Video Codec
Format profile                           :
Format settings                          : CABAC / 5 Ref Frames
Format settings, CABAC                   : Yes
Format settings, Reference frames        : 5 frames
Codec ID                                 : V_MPEG4/ISO/AVC
Duration                                 : 1 h 48 min
Bit rate                                 : 9 845 kb/s
Width                                    : 1 920 pixels
Height                                   : 800 pixels
Display aspect ratio                     : 2.40:1
Frame rate mode                          : Constant
Frame rate                               : 23.976 (24000/1001/189150) FPS
Color space                              : YUV
Chroma subsampling                       : 4:2:0
Bit depth                                : 8 bits
Scan type                                : Progressive
Bits/(Pixel*Frame)                       : 0.267
Stream size                              : 7.44 GiB (94%)
Writing library                          : x264 core 157 r2935 545de2f
Encoding settings                        : cabac=1 / ref=5 / deblock=1:-3:-3 / analyse=0x3:0x133 / me=umh / subme=10 / psy=1 / psy_rd=1.00:0.00 / mixed_ref=1 / me_range=32 / chroma_me=1 / trellis=2 / 8x8dct=1 / cqm=0 / deadzone=21,11 / fast_pskip=0 / chroma_qp_offset=-2 / threads=12 / lookahead_threads=3 / sliced_threads=0 / nr=0 / decimate=0 / interlaced=0 / bluray_compat=0 / constrained_intra=0 / bframes=16 / b_pyramid=2 / b_adapt=2 / b_bias=0 / direct=3 / weightb=1 / open_gop=0 / weightp=2 / keyint=240 / keyint_min=24 / scenecut=40 / intra_refresh=0 / rc_lookahead=60 / rc=crf / mbtree=0 / crf=18.0 / qcomp=0.60 / qpmin=0 / qpmax=69 / qpstep=4 / vbv_maxrate=62500 / vbv_bufsize=78125 / crf_max=0.0 / nal_hrd=none / filler=0 / ip_ratio=1.40 / pb_ratio=1.30 / aq=2:1.00
Default                                  : Yes
Forced                                   : No
Color range                              : Limited
Color primaries                          : BT.709
Transfer characteristics                 : BT.709
Matrix coefficients                      : BT.709

Audio
ID                                       : 2
Format                                   : AC-3
Format/Info                              : Audio Coding 3
Commercial name                          : Dolby Digital
Codec ID                                 : A_AC3
Duration                                 : 1 h 48 min
Bit rate mode                            : Constant
Bit rate                                 : 640 kb/s
Channel(s)                               : 6 channels
Channel layout                           : L R C LFE Ls Rs
Sampling rate                            : 48.0 kHz
Frame rate                               : 31.250 FPS (1536 SPF)
Compression mode                         : Lossy
Stream size                              : 495 MiB (6%)
Language                                 : Russian
Service kind                             : Complete Main
Default                                  : Yes
Forced                                   : No

Text #1
ID                                       : 3
Format                                   : UTF-8
Codec ID                                 : S_TEXT/UTF8
Codec ID/Info                            : UTF-8 Plain Text
Duration                                 : 1 h 41 min
Bit rate                                 : 45 b/s
Count of elements                        : 1037
Stream size                              : 33.5 KiB (0%)
Language                                 : English
Default                                  : Yes
Forced                                   : No

Text #2
ID                                       : 4
Format                                   : UTF-8
Codec ID                                 : S_TEXT/UTF8
Codec ID/Info                            : UTF-8 Plain Text
Duration                                 : 1 h 41 min
Bit rate                                 : 50 b/s
Count of elements                        : 1032
Stream size                              : 37.6 KiB (0%)
Language                                 : German
Default                                  : No
Forced                                   : No

Text #3
ID                                       : 5
Format                                   : UTF-8
Codec ID                                 : S_TEXT/UTF8
Codec ID/Info                            : UTF-8 Plain Text
Duration                                 : 1 h 42 min
Bit rate                                 : 43 b/s
Count of elements                        : 1041
Stream size                              : 32.6 KiB (0%)
Language                                 : Romanian
Default                                  : No
Forced                                   : No

Menu
00:00:00.000                             : :Chapter 1
00:09:42.665                             : :Chapter 2
00:18:23.853                             : :Chapter 3
00:28:32.252                             : :Chapter 4
00:37:53.646                             : :Chapter 5
00:47:07.533                             : :Chapter 6
00:55:04.426                             : :Chapter 7
01:05:02.315                             : :Chapter 8
01:14:37.974                             : :Chapter 9
01:21:39.853                             : :Chapter 10
01:33:04.662                             : :Chapter 11
01:42:13.419                             : :Chapter 12
[/url][/url][/url]



                                                                                                                                                                                                        
                                                                                                                                                                                                                                                                                                                                                                                                                                                                                                                                                                                                                                                                                                                                                                                                                                                        
13bfe20074cb09232427d5ab4f9b8a7a.zip (40.32 KB, 下载次数: 0)

回复

使用道具 举报

小黑屋|西西论坛

本网站所有资源来自网络,如无意中侵犯了您的权益,请发邮件至 [email protected],立即清除相关链接

GMT+8, 2021-3-2 02:44 , Processed in 0.096657 second(s), 23 queries .

Powered by Discuz! X3.2

© 2001-2013 Comsenz Inc.

快速回复 返回顶部 返回列表