西西论坛

 找回密码
 立即注册
搜索

[BD-4K] 斯宾塞的机密任务 Spenser.Confidential.2020.2160p.NF.WEB-DL.x265.10bit...

[复制链接]
电影首发 发表于 2021-2-2 20:45:18 | 显示全部楼层 |阅读模式
-->
帖子完整标题:斯宾塞的机密任务 Spenser.Confidential.2020.2160p.NF.WEB-DL.x265.10bit.SDR.DDP5.1.Atmos-SWTYBLZ 9.57GB


[/url]

◎译  名 斯宾塞的机密任务/Wonderland/仙境/史宾赛的机密任务(台)/奇特之地/斯潘瑟机密/隐侠:地下正义(港)
◎片  名 Spenser Confidential
◎年  代 2020
◎产  地 美国
◎类  别 剧情 / 悬疑 / 惊悚 / 犯罪
◎语  言 英语
◎上映日期 2020-03-06(美国)
◎IMDb评分  6.2/10 from 69378 users
◎  
◎豆瓣评分 5.8/10 from 4988 users
◎ 
◎片  长 110分钟
◎导  演 彼得·博格 Peter Berg
◎编  剧 布莱恩·海尔格兰德 Brian Helgeland / 肖恩·欧奇夫 Sean O'Keefe / 罗伯特·B·帕克 Robert B. Parker / 艾斯·阿特金斯 Ace Atkins
◎主  演 马克·沃尔伯格 Mark Wahlberg
       艾伦·阿金 Alan Arkin
       考林·加普 Colleen Camp
       博基姆·伍德拜因 Bokeem Woodbine
       温斯顿·杜克 Winston Duke
       埃莱扎·施莱辛格 Iliza Shlesinger
       迈克尔·加斯顿 Michael Gaston
       马克·马龙 Marc Maron
       凯茜·温图拉 Cassie Ventura
       詹姆斯·杜蒙特 James DuMont
       杰米·加扎里安 Jamie Ghazarian
       汉斯·马雷罗 Hans Marrero
       亚历山德拉·维诺 Alexandra Vino
       托马斯·马里亚诺 Thomas Mariano
       莱克西·罗斯 Lexie Roth
       多梅尼克·阿尔迪诺 Domenic Arduino
       阿德里安·M·蒙波因特 Adrian M. Mompoint
       兰迪·冈萨雷斯 Randy Gonzalez
       博·克利里 Bo Cleary
       罗丝玛丽·霍华德 Rosemary Howard
       比利·康查 Billy Concha
       吉莉安·泰勒 Jillian Taylor
       妮可·杰森 Nicole Jesson
       阿尔弗雷德·布里埃 Alfred Briere
       玛塞拉·贾拉米洛 Marcela Jaramillo

◎标  签 犯罪 | 动作 | 马克·沃尔伯格 | 美国 | Netflix | 2020 | 侦探 | 悬疑

◎简  介

  这是沃尔伯格和导演彼得·博格自《孤独的幸存者》《恐袭波士顿》《深海浩劫》《22英里》后第五度,合作基于罗伯特·B·派克所著同名小说,派克死后由Ace Atkins接手创作,也是以男主角Spenser为中心的八本系列悬疑小说中的一本。Netflix已经和派克遗产方面达成协议,基于Spenser这一角色打造一系列电影。
  
  本片将有别于小说,小说讲述Spenser从一个满嘴俏皮话的拳击手变为波士顿的一名私家侦探,电影从Spenser出狱开始讲起,他被剥夺了私人侦探执照,当他揭露了一个耸人听闻的谋杀案和背后阴谋的真相时,他又被拉回了波士顿的黑暗犯罪世界中。尼尔·莫瑞兹(《速度与激情》系列 《越狱》)制片, Sean O’Keefe编写剧本。
[quote]Video
ID                                       : 1
Format                                   : HEVC
Format/Info                              : High Efficiency Video Coding
Format profile                           : Main @Main
Codec ID                                 : V_MPEGH/ISO/HEVC
Duration                                 : 1 h 51 min
Bit rate                                 : 11.5 Mb/s
Width                                    : 3 840 pixels
Height                                   : 2 160 pixels
Display aspect ratio                     : 16:9
Frame rate mode                          : Constant
Frame rate                               : 24.000 FPS
Color space                              : YUV
Chroma subsampling                       : 4:2:0
Bit depth                                : 10 bits
Bits/(Pixel*Frame)                       : 0.058
Stream size                              : 8.97 GiB (94%)
Default                                  : Yes
Forced                                   : No
Color range                              : Limited
Color primaries                          : BT.709
Transfer characteristics                 : BT.709
Matrix coefficients                      : BT.709

Audio
ID                                       : 2
Format                                   : E-AC-3 JOC
Format/Info                              : Enhanced AC-3 with Joint Object Coding
Commercial name                          : Dolby Digital Plus with Dolby Atmos
Codec ID                                 : A_EAC3
Duration                                 : 1 h 51 min
Bit rate mode                            : Constant
Bit rate                                 : 768 kb/s
Channel(s)                               : 6 channels
Channel layout                           : L R C LFE Ls Rs
Sampling rate                            : 48.0 kHz
Frame rate                               : 31.250 FPS (1536 SPF)
Compression mode                         : Lossy
Stream size                              : 611 MiB (6%)
Title                                    : DDP 5.1 Atmos
Language                                 : English
Service kind                             : Complete Main
Default                                  : Yes
Forced                                   : No
Complexity index                         : 16
Number of dynamic objects                : 15
Bed channel count                        : 1 channel
Bed channel configuration                : LFE

Text #1
ID                                       : 3
Format                                   : UTF-8
Codec ID                                 : S_TEXT/UTF8
Codec ID/Info                            : UTF-8 Plain Text
Duration                                 : 1 h 44 min
Bit rate                                 : 84 b/s
Count of elements                        : 1906
Stream size                              : 64.8 KiB (0%)
Language                                 : English
Default                                  : Yes
Forced                                   : No

Text #2
ID                                       : 4
Format                                   : UTF-8
Codec ID                                 : S_TEXT/UTF8
Codec ID/Info                            : UTF-8 Plain Text
Duration                                 : 1 h 49 min
Bit rate                                 : 52 b/s
Count of elements                        : 1504
Stream size                              : 42.0 KiB (0%)
Language                                 : Danish
Default                                  : No
Forced                                   : No

Text #3
ID                                       : 5
Format                                   : UTF-8
Codec ID                                 : S_TEXT/UTF8
Codec ID/Info                            : UTF-8 Plain Text
Duration                                 : 1 h 44 min
Bit rate                                 : 56 b/s
Count of elements                        : 1516
Stream size                              : 43.5 KiB (0%)
Language                                 : German
Default                                  : No
Forced                                   : No

Text #4
ID                                       : 6
Format                                   : UTF-8
Codec ID                                 : S_TEXT/UTF8
Codec ID/Info                            : UTF-8 Plain Text
Duration                                 : 1 h 49 min
Bit rate                                 : 59 b/s
Count of elements                        : 1570
Stream size                              : 47.6 KiB (0%)
Language                                 : French
Default                                  : No
Forced                                   : No

Text #5
ID                                       : 7
Format                                   : UTF-8
Codec ID                                 : S_TEXT/UTF8
Codec ID/Info                            : UTF-8 Plain Text
Duration                                 : 1 h 49 min
Bit rate                                 : 94 b/s
Count of elements                        : 1568
Stream size                              : 76.3 KiB (0%)
Language                                 : Greek
Default                                  : No
Forced                                   : No

Text #6
ID                                       : 8
Format                                   : UTF-8
Codec ID                                 : S_TEXT/UTF8
Codec ID/Info                            : UTF-8 Plain Text
Duration                                 : 1 h 49 min
Bit rate                                 : 53 b/s
Count of elements                        : 1582
Stream size                              : 43.0 KiB (0%)
Language                                 : Spanish
Default                                  : No
Forced                                   : No

Text #7
ID                                       : 9
Format                                   : UTF-8
Codec ID                                 : S_TEXT/UTF8
Codec ID/Info                            : UTF-8 Plain Text
Duration                                 : 1 h 49 min
Bit rate                                 : 56 b/s
Count of elements                        : 1598
Stream size                              : 45.2 KiB (0%)
Language                                 : Spanish
Default                                  : No
Forced                                   : No

Text #8
ID                                       : 10
Format                                   : UTF-8
Codec ID                                 : S_TEXT/UTF8
Codec ID/Info                            : UTF-8 Plain Text
Duration                                 : 1 h 43 min
Bit rate                                 : 60 b/s
Count of elements                        : 1210
Stream size                              : 45.7 KiB (0%)
Language                                 : Czech
Default                                  : No
Forced                                   : No

Text #9
ID                                       : 11
Format                                   : UTF-8
Codec ID                                 : S_TEXT/UTF8
Codec ID/Info                            : UTF-8 Plain Text
Duration                                 : 1 h 49 min
Bit rate                                 : 53 b/s
Count of elements                        : 1593
Stream size                              : 42.6 KiB (0%)
Language                                 : Hungarian
Default                                  : No
Forced                                   : No

Text #10
ID                                       : 12
Format                                   : UTF-8
Codec ID                                 : S_TEXT/UTF8
Codec ID/Info                            : UTF-8 Plain Text
Duration                                 : 1 h 49 min
Bit rate                                 : 59 b/s
Count of elements                        : 1604
Stream size                              : 47.8 KiB (0%)
Language                                 : Indonesian
Default                                  : No
Forced                                   : No

Text #11
ID                                       : 13
Format                                   : UTF-8
Codec ID                                 : S_TEXT/UTF8
Codec ID/Info                            : UTF-8 Plain Text
Duration                                 : 1 h 49 min
Bit rate                                 : 111 b/s
Count of elements                        : 1583
Stream size                              : 89.8 KiB (0%)
Language                                 : Arabic
Default                                  : No
Forced                                   : No

Text #12
ID                                       : 14
Format                                   : UTF-8
Codec ID                                 : S_TEXT/UTF8
Codec ID/Info                            : UTF-8 Plain Text
Duration                                 : 1 h 49 min
Bit rate                                 : 53 b/s
Count of elements                        : 1411
Stream size                              : 42.7 KiB (0%)
Language                                 : Finnish
Default                                  : No
Forced                                   : No

Text #13
ID                                       : 15
Format                                   : UTF-8
Codec ID                                 : S_TEXT/UTF8
Codec ID/Info                            : UTF-8 Plain Text
Duration                                 : 1 h 49 min
Bit rate                                 : 76 b/s
Count of elements                        : 1604
Stream size                              : 61.2 KiB (0%)
Language                                 : Korean
Default                                  : No
Forced                                   : No

Text #14
ID                                       : 16
Format                                   : UTF-8
Codec ID                                 : S_TEXT/UTF8
Codec ID/Info                            : UTF-8 Plain Text
Duration                                 : 1 h 49 min
Bit rate                                 : 99 b/s
Count of elements                        : 1590
Stream size                              : 80.2 KiB (0%)
Language                                 : Hebrew
Default                                  : No
Forced                                   : No

Text #15
ID                                       : 17
Format                                   : UTF-8
Codec ID                                 : S_TEXT/UTF8
Codec ID/Info                            : UTF-8 Plain Text
Duration                                 : 1 h 49 min
Bit rate                                 : 174 b/s
Count of elements                        : 1610
Stream size                              : 140 KiB (0%)
Language                                 : Hindi
Default                                  : No
Forced                                   : No

Text #16
ID                                       : 18
Format                                   : UTF-8
Codec ID                                 : S_TEXT/UTF8
Codec ID/Info                            : UTF-8 Plain Text
Duration                                 : 1 h 49 min
Bit rate                                 : 55 b/s
Count of elements                        : 1373
Stream size                              : 44.6 KiB (0%)
Language                                 : Dutch
Default                                  : No
Forced                                   : No

Text #17
ID                                       : 19
Format                                   : UTF-8
Codec ID                                 : S_TEXT/UTF8
Codec ID/Info                            : UTF-8 Plain Text
Duration                                 : 1 h 49 min
Bit rate                                 : 56 b/s
Count of elements                        : 1548
Stream size                              : 45.7 KiB (0%)
Language                                 : Italian
Default                                  : No
Forced                                   : No

Text #18
ID                                       : 20
Format                                   : UTF-8
Codec ID                                 : S_TEXT/UTF8
Codec ID/Info                            : UTF-8 Plain Text
Duration                                 : 1 h 49 min
Bit rate                                 : 65 b/s
Count of elements                        : 1637
Stream size                              : 52.6 KiB (0%)
Title                                    : Simplified
Language                                 : Chinese
Default                                  : No
Forced                                   : No

Text #19
ID                                       : 21
Format                                   : UTF-8
Codec ID                                 : S_TEXT/UTF8
Codec ID/Info                            : UTF-8 Plain Text
Duration                                 : 1 h 49 min
Bit rate                                 : 66 b/s
Count of elements                        : 1607
Stream size                              : 53.1 KiB (0%)
Title                                    : Traditional
Language                                 : Chinese
Default                                  : No
Forced                                   : No

Text #20
ID                                       : 22
Format                                   : UTF-8
Codec ID                                 : S_TEXT/UTF8
Codec ID/Info                            : UTF-8 Plain Text
Duration                                 : 1 h 49 min
Bit rate                                 : 56 b/s
Count of elements                        : 1590
Stream size                              : 45.2 KiB (0%)
Title                                    : Brasil
Language                                 : Portuguese
Default                                  : No
Forced                                   : No

Text #21
ID                                       : 23
Format                                   : UTF-8
Codec ID                                 : S_TEXT/UTF8
Codec ID/Info                            : UTF-8 Plain Text
Duration                                 : 1 h 49 min
Bit rate                                 : 62 b/s
Count of elements                        : 1572
Stream size                              : 49.8 KiB (0%)
Language                                 : Portuguese
Default                                  : No
Forced                                   : No

Text #22
ID                                       : 24
Format                                   : UTF-8
Codec ID                                 : S_TEXT/UTF8
Codec ID/Info                            : UTF-8 Plain Text
Duration                                 : 1 h 49 min
Bit rate                                 : 53 b/s
Count of elements                        : 1495
Stream size                              : 42.7 KiB (0%)
Language                                 : Japanese
Default                                  : No
Forced                                   : No

Text #23
ID                                       : 25
Format                                   : UTF-8
Codec ID                                 : S_TEXT/UTF8
Codec ID/Info                            : UTF-8 Plain Text
Duration                                 : 1 h 49 min
Bit rate                                 : 54 b/s
Count of elements                        : 1441
Stream size                              : 43.4 KiB (0%)
Language                                 : Norwegian Bokmal
Default                                  : No
Forced                                   : No

Text #24
ID                                       : 26
Format                                   : UTF-8
Codec ID                                 : S_TEXT/UTF8
Codec ID/Info                            : UTF-8 Plain Text
Duration                                 : 1 h 49 min
Bit rate                                 : 49 b/s
Count of elements                        : 1483
Stream size                              : 39.7 KiB (0%)
Language                                 : Polish
Default                                  : No
Forced                                   : No

Text #25
ID                                       : 27
Format                                   : UTF-8
Codec ID                                 : S_TEXT/UTF8
Codec ID/Info                            : UTF-8 Plain Text
Duration                                 : 1 h 49 min
Bit rate                                 : 65 b/s
Count of elements                        : 1509
Stream size                              : 52.7 KiB (0%)
Language                                 : Romanian
Default                                  : No
Forced                                   : No

Text #26
ID                                       : 28
Format                                   : UTF-8
Codec ID                                 : S_TEXT/UTF8
Codec ID/Info                            : UTF-8 Plain Text
Duration                                 : 1 h 49 min
Bit rate                                 : 101 b/s
Count of elements                        : 1606
Stream size                              : 81.3 KiB (0%)
Language                                 : Russian
Default                                  : No
Forced                                   : No

Text #27
ID                                       : 29
Format                                   : UTF-8
Codec ID                                 : S_TEXT/UTF8
Codec ID/Info                            : UTF-8 Plain Text
Duration                                 : 1 h 49 min
Bit rate                                 : 53 b/s
Count of elements                        : 1296
Stream size                              : 43.1 KiB (0%)
Language                                 : Swedish
Default                                  : No
Forced                                   : No

Text #28
ID                                       : 30
Format                                   : UTF-8
Codec ID                                 : S_TEXT/UTF8
Codec ID/Info                            : UTF-8 Plain Text
Duration                                 : 1 h 49 min
Bit rate                                 : 169 b/s
Count of elements                        : 1617
Stream size                              : 136 KiB (0%)
Language                                 : Thai
Default                                  : No
Forced                                   : No

Text #29
ID                                       : 31
Format                                   : UTF-8
Codec ID                                 : S_TEXT/UTF8
Codec ID/Info                            : UTF-8 Plain Text
Duration                                 : 1 h 49 min
Bit rate                                 : 59 b/s
Count of elements                        : 1499
Stream size                              : 47.9 KiB (0%)
Language                                 : Turkish
Default                                  : No
Forced                                   : No

Text #30
ID  &nb

回复

使用道具 举报

小黑屋|西西论坛

本网站所有资源来自网络,如无意中侵犯了您的权益,请发邮件至 [email protected],立即清除相关链接

GMT+8, 2021-3-2 00:22 , Processed in 0.125264 second(s), 20 queries .

Powered by Discuz! X3.2

© 2001-2013 Comsenz Inc.

快速回复 返回顶部 返回列表