西西论坛

 找回密码
 立即注册
搜索

[BD-4K] 极速人生:方吉奥的故事 A.Life.of.Speed.The.Juan.Manuel.Fangio.Story....

[复制链接]
电影首发 发表于 2021-2-1 20:38:30 | 显示全部楼层 |阅读模式
-->
帖子完整标题:极速人生:方吉奥的故事 A.Life.of.Speed.The.Juan.Manuel.Fangio.Story.2020.SPANISH.2160p.NF.WEB-DL.x265.10bit.SDR.DDP5.1-SWTYBLZ 7.73GB


[/url]

◎译  名 极速人生:方吉奥的故事/A Life of Speed: The Juan Manuel Fangio Story/Fangio:車壇聖手的風光背後(港)/范吉奥:一代车神(新加坡)/范吉歐:馭車之神(台)
◎片  名 Fangio: El hombre que domaba las máquinas
◎年  代 2020
◎产  地 阿根廷
◎类  别 纪录片 / 传记 / 运动
◎语  言 西班牙语,英语,意大利语
◎上映日期 2020-03-20(网络)
◎IMDb评分  6.8/10 from 1326 users
◎  
◎豆瓣评分 /10 from 0 users
◎ 
◎片  长 92分钟
◎编  剧 罗德里戈·H·比拉 Rodrigo H. Vila
◎主  演 费尔南多·阿隆索 Fernando Alonso
       阿兰·普罗斯特 Alain Prost
       杰基·斯图尔特 Jackie Stewart
       胡安·曼努埃尔·范吉奥 Juan Manuel Fangio
       米卡·哈基宁 Mika H?kkinen
       尼科·罗斯伯格 Nico Rosberg
       卡洛斯·罗伊特曼 Carlos Reutemann

◎标  签 纪录片 | 阿根廷 | 赛车 | F1 | 美洲 | [歐美] | 2020

◎简  介

  一級方程式賽車之王胡安·曼努埃爾·范吉歐曾於 1950 年代初勇奪五次世界冠軍,在那不知防護裝備和安全功能為何物的年代。
Video
ID                                       : 1
Format                                   : HEVC
Format/Info                              : High Efficiency Video Coding
Format profile                           : Main @Main
Codec ID                                 : V_MPEGH/ISO/HEVC
Duration                                 : 1 h 32 min
Bit rate                                 : 11.3 Mb/s
Width                                    : 3 840 pixels
Height                                   : 2 160 pixels
Display aspect ratio                     : 16:9
Frame rate mode                          : Constant
Frame rate                               : 23.976 (24000/1001/189150) FPS
Color space                              : YUV
Chroma subsampling                       : 4:2:0
Bit depth                                : 10 bits
Bits/(Pixel*Frame)                       : 0.057
Stream size                              : 7.32 GiB (95%)
Default                                  : Yes
Forced                                   : No
Color range                              : Limited
Color primaries                          : BT.709
Transfer characteristics                 : BT.709
Matrix coefficients                      : BT.709

Audio
ID                                       : 2
Format                                   : E-AC-3
Format/Info                              : Enhanced AC-3
Commercial name                          : Dolby Digital Plus
Codec ID                                 : A_EAC3
Duration                                 : 1 h 32 min
Bit rate mode                            : Constant
Bit rate                                 : 640 kb/s
Channel(s)                               : 6 channels
Channel layout                           : L R C LFE Ls Rs
Sampling rate                            : 48.0 kHz
Frame rate                               : 31.250 FPS (1536 SPF)
Compression mode                         : Lossy
Stream size                              : 423 MiB (5%)
Title                                    : DDP 5 .1
Language                                 : Spanish
Service kind                             : Complete Main
Default                                  : Yes
Forced                                   : No

Text #1
ID                                       : 3
Format                                   : UTF-8
Codec ID                                 : S_TEXT/UTF8
Codec ID/Info                            : UTF-8 Plain Text
Duration                                 : 1 h 27 min
Bit rate                                 : 50 b/s
Count of elements                        : 811
Stream size                              : 32.5 KiB (0%)
Language                                 : English
Default                                  : Yes
Forced                                   : Yes

Text #2
ID                                       : 4
Format                                   : UTF-8
Codec ID                                 : S_TEXT/UTF8
Codec ID/Info                            : UTF-8 Plain Text
Duration                                 : 1 h 32 min
Bit rate                                 : 77 b/s
Count of elements                        : 1239
Stream size                              : 52.4 KiB (0%)
Language                                 : Danish
Default                                  : No
Forced                                   : No

Text #3
ID                                       : 5
Format                                   : UTF-8
Codec ID                                 : S_TEXT/UTF8
Codec ID/Info                            : UTF-8 Plain Text
Duration                                 : 1 h 27 min
Bit rate                                 : 50 b/s
Count of elements                        : 718
Stream size                              : 32.7 KiB (0%)
Title                                    : FORCED
Language                                 : Spanish
Default                                  : No
Forced                                   : No

Text #4
ID                                       : 6
Format                                   : UTF-8
Codec ID                                 : S_TEXT/UTF8
Codec ID/Info                            : UTF-8 Plain Text
Duration                                 : 1 h 32 min
Bit rate                                 : 143 b/s
Count of elements                        : 1302
Stream size                              : 96.8 KiB (0%)
Language                                 : Arabic
Default                                  : No
Forced                                   : No

Text #5
ID                                       : 7
Format                                   : UTF-8
Codec ID                                 : S_TEXT/UTF8
Codec ID/Info                            : UTF-8 Plain Text
Duration                                 : 1 h 31 min
Bit rate                                 : 73 b/s
Count of elements                        : 1285
Stream size                              : 49.4 KiB (0%)
Language                                 : Czech
Default                                  : No
Forced                                   : No

Text #6
ID                                       : 8
Format                                   : UTF-8
Codec ID                                 : S_TEXT/UTF8
Codec ID/Info                            : UTF-8 Plain Text
Duration                                 : 1 h 28 min
Bit rate                                 : 93 b/s
Count of elements                        : 1336
Stream size                              : 60.9 KiB (0%)
Title                                    : SDH
Language                                 : Spanish
Default                                  : No
Forced                                   : No

Text #7
ID                                       : 9
Format                                   : UTF-8
Codec ID                                 : S_TEXT/UTF8
Codec ID/Info                            : UTF-8 Plain Text
Duration                                 : 1 h 32 min
Bit rate                                 : 78 b/s
Count of elements                        : 1265
Stream size                              : 52.8 KiB (0%)
Language                                 : Finnish
Default                                  : No
Forced                                   : No

Text #8
ID                                       : 10
Format                                   : UTF-8
Codec ID                                 : S_TEXT/UTF8
Codec ID/Info                            : UTF-8 Plain Text
Duration                                 : 1 h 32 min
Bit rate                                 : 84 b/s
Count of elements                        : 1274
Stream size                              : 56.9 KiB (0%)
Language                                 : French
Default                                  : No
Forced                                   : No

Text #9
ID                                       : 11
Format                                   : UTF-8
Codec ID                                 : S_TEXT/UTF8
Codec ID/Info                            : UTF-8 Plain Text
Duration                                 : 1 h 29 min
Bit rate                                 : 83 b/s
Count of elements                        : 1167
Stream size                              : 54.9 KiB (0%)
Language                                 : German
Default                                  : No
Forced                                   : No

Text #10
ID                                       : 12
Format                                   : UTF-8
Codec ID                                 : S_TEXT/UTF8
Codec ID/Info                            : UTF-8 Plain Text
Duration                                 : 1 h 32 min
Bit rate                                 : 143 b/s
Count of elements                        : 1368
Stream size                              : 97.2 KiB (0%)
Language                                 : Greek
Default                                  : No
Forced                                   : No

Text #11
ID                                       : 13
Format                                   : UTF-8
Codec ID                                 : S_TEXT/UTF8
Codec ID/Info                            : UTF-8 Plain Text
Duration                                 : 1 h 32 min
Bit rate                                 : 123 b/s
Count of elements                        : 1314
Stream size                              : 83.2 KiB (0%)
Language                                 : Hebrew
Default                                  : No
Forced                                   : No

Text #12
ID                                       : 14
Format                                   : UTF-8
Codec ID                                 : S_TEXT/UTF8
Codec ID/Info                            : UTF-8 Plain Text
Duration                                 : 1 h 32 min
Bit rate                                 : 79 b/s
Count of elements                        : 1290
Stream size                              : 54.0 KiB (0%)
Language                                 : Hungarian
Default                                  : No
Forced                                   : No

Text #13
ID                                       : 15
Format                                   : UTF-8
Codec ID                                 : S_TEXT/UTF8
Codec ID/Info                            : UTF-8 Plain Text
Duration                                 : 1 h 32 min
Bit rate                                 : 77 b/s
Count of elements                        : 1140
Stream size                              : 52.3 KiB (0%)
Language                                 : Norwegian Bokmal
Default                                  : No
Forced                                   : No

Text #14
ID                                       : 16
Format                                   : UTF-8
Codec ID                                 : S_TEXT/UTF8
Codec ID/Info                            : UTF-8 Plain Text
Duration                                 : 1 h 29 min
Bit rate                                 : 87 b/s
Count of elements                        : 1260
Stream size                              : 57.0 KiB (0%)
Title                                    : Brasil
Language                                 : Portuguese
Default                                  : No
Forced                                   : No

Text #15
ID                                       : 17
Format                                   : UTF-8
Codec ID                                 : S_TEXT/UTF8
Codec ID/Info                            : UTF-8 Plain Text
Duration                                 : 1 h 32 min
Bit rate                                 : 79 b/s
Count of elements                        : 1272
Stream size                              : 53.5 KiB (0%)
Language                                 : Portuguese
Default                                  : No
Forced                                   : No

Text #16
ID                                       : 18
Format                                   : UTF-8
Codec ID                                 : S_TEXT/UTF8
Codec ID/Info                            : UTF-8 Plain Text
Duration                                 : 1 h 32 min
Bit rate                                 : 75 b/s
Count of elements                        : 1184
Stream size                              : 51.1 KiB (0%)
Language                                 : Dutch
Default                                  : No
Forced                                   : No

Text #17
ID                                       : 19
Format                                   : UTF-8
Codec ID                                 : S_TEXT/UTF8
Codec ID/Info                            : UTF-8 Plain Text
Duration                                 : 1 h 32 min
Bit rate                                 : 80 b/s
Count of elements                        : 1269
Stream size                              : 54.3 KiB (0%)
Language                                 : Turkish
Default                                  : No
Forced                                   : No

Text #18
ID                                       : 20
Format                                   : UTF-8
Codec ID                                 : S_TEXT/UTF8
Codec ID/Info                            : UTF-8 Plain Text
Duration                                 : 1 h 32 min
Bit rate                                 : 126 b/s
Count of elements                        : 1284
Stream size                              : 85.2 KiB (0%)
Language                                 : Russian
Default                                  : No
Forced                                   : No

Text #19
ID                                       : 21
Format                                   : UTF-8
Codec ID                                 : S_TEXT/UTF8
Codec ID/Info                            : UTF-8 Plain Text
Duration                                 : 1 h 32 min
Bit rate                                 : 71 b/s
Count of elements                        : 1104
Stream size                              : 48.5 KiB (0%)
Language                                 : Italian
Default                                  : No
Forced                                   : No

Text #20
ID                                       : 22
Format                                   : UTF-8
Codec ID                                 : S_TEXT/UTF8
Codec ID/Info                            : UTF-8 Plain Text
Duration                                 : 1 h 32 min
Bit rate                                 : 76 b/s
Count of elements                        : 1307
Stream size                              : 51.7 KiB (0%)
Language                                 : Polish
Default                                  : No
Forced                                   : No

Text #21
ID                                       : 23
Format                                   : UTF-8
Codec ID                                 : S_TEXT/UTF8
Codec ID/Info                            : UTF-8 Plain Text
Duration                                 : 1 h 32 min
Bit rate                                 : 78 b/s
Count of elements                        : 1276
Stream size                              : 52.8 KiB (0%)
Language                                 : Swedish
Default                                  : No
Forced                                   : No

Text #22
ID                                       : 24
Format                                   : UTF-8
Codec ID                                 : S_TEXT/UTF8
Codec ID/Info                            : UTF-8 Plain Text
Duration                                 : 1 h 32 min
Bit rate                                 : 86 b/s
Count of elements                        : 1251
Stream size                              : 58.2 KiB (0%)
Language                                 : Romanian
Default                                  : No
Forced                                   : No




                                                                                                                                                                                                        
                                                                                                                                                                                                                                                                                                                                                                                                                                                                                                                                                                                                                                                                                                                                                                                                                                                        
a9795cfcc06338a1f9d2bfed74ef700a.zip (39.47 KB, 下载次数: 0)

回复

使用道具 举报

小黑屋|西西论坛

本网站所有资源来自网络,如无意中侵犯了您的权益,请发邮件至 [email protected],立即清除相关链接

GMT+8, 2021-2-26 03:28 , Processed in 0.098129 second(s), 23 queries .

Powered by Discuz! X3.2

© 2001-2013 Comsenz Inc.

快速回复 返回顶部 返回列表