西西论坛

 找回密码
 立即注册
搜索

黑色琴弦 The.Black.String.2018.PROPER.1080p.BluRay.x264-JustWatch 7.13GB

[复制链接]
电影首发 发表于 2021-2-1 20:07:45 | 显示全部楼层 |阅读模式
-->
帖子完整标题:黑色琴弦 The.Black.String.2018.PROPER.1080p.BluRay.x264-JustWatch 7.13GB


[/url]

◎译  名 黑色琴弦
◎片  名 THE BLACK STRING
◎年  代 2018
◎产  地 美国
◎类  别 悬疑 / 惊悚 / 恐怖
◎语  言 英语
◎上映日期 2018-10-25(美国)
◎IMDb评分  5.4/10 from 745 users
◎  
◎豆瓣评分 /10 from 0 users
◎ 
◎片  长 90分钟
◎导  演 Brian Hanson
◎编  剧 Brian Hanson

◎标  签 惊悚 | 英國 | 美国电影 | 美国 | 悬疑 | 恐怖 | BrianHanson

◎简  介

  Jonathan is a lonely twenty-something, stuck in his home town working night shifts at the local convenience store. When an unexpected encounter with a mysterious woman turns his life upside down, Jonathan is stricken by illness and nightmarish visions. Paranoid and desperate, he launches on a quest across the suburbs to find the seductress who started it all. Friends and family believe he's losing his mind, but Jonathan is convinced he's the target of something far more sinister.
Video
ID                                       : 1
Format                                   : AVC
Format/Info                              : Advanced Video Codec
Format profile                           :
Format settings                          : CABAC / 4 Ref Frames
Format settings, CABAC                   : Yes
Format settings, Reference frames        : 4 frames
Codec ID                                 : V_MPEG4/ISO/AVC
Duration                                 : 1 h 32 min
Bit rate                                 : 8 414 kb/s
Width                                    : 1 920 pixels
Height                                   : 988 pixels
Display aspect ratio                     : 1.943
Frame rate mode                          : Constant
Frame rate                               : 23.976 (24000/1001/189150) FPS
Color space                              : YUV
Chroma subsampling                       : 4:2:0
Bit depth                                : 8 bits
Scan type                                : Progressive
Bits/(Pixel*Frame)                       : 0.185
Stream size                              : 5.43 GiB (76%)
Writing library                          : x264 core 161 r3043 59c0609
Encoding settings                        : cabac=1 / ref=4 / deblock=1:-3:-3 / analyse=0x3:0x133 / me=umh / subme=9 / psy=1 / psy_rd=1.00:0.00 / mixed_ref=1 / me_range=16 / chroma_me=1 / trellis=2 / 8x8dct=1 / cqm=0 / deadzone=21,11 / fast_pskip=0 / chroma_qp_offset=-2 / threads=24 / lookahead_threads=2 / sliced_threads=0 / nr=0 / decimate=1 / interlaced=0 / bluray_compat=0 / constrained_intra=0 / bframes=3 / b_pyramid=2 / b_adapt=2 / b_bias=0 / direct=3 / weightb=1 / open_gop=0 / weightp=2 / keyint=250 / keyint_min=23 / scenecut=40 / intra_refresh=0 / rc_lookahead=60 / rc=crf / mbtree=1 / crf=17.5 / qcomp=0.60 / qpmin=0 / qpmax=69 / qpstep=4 / ip_ratio=1.40 / aq=1:1.00
Language                                 : English
Default                                  : Yes
Forced                                   : No

Audio
ID                                       : 2
Format                                   : DTS XLL
Format/Info                              : Digital Theater Systems
Commercial name                          : DTS-HD Master Audio
Codec ID                                 : A_DTS
Duration                                 : 1 h 32 min
Bit rate mode                            : Variable
Bit rate                                 : 2 605 kb/s
Channel(s)                               : 6 channels
Channel layout                           : C L R Ls Rs LFE
Sampling rate                            : 48.0 kHz
Frame rate                               : 93.750 FPS (512 SPF)
Bit depth                                : 24 bits
Compression mode                         : Lossless
Stream size                              : 1.68 GiB (24%)
Language                                 : English
Default                                  : Yes
Forced                                   : No

Text #1
ID                                       : 3
Format                                   : PGS
Muxing mode                              : zlib
Codec ID                                 : S_HDMV/PGS
Codec ID/Info                            : Picture based subtitle format used on BDs/HD-DVDs
Duration                                 : 1 h 27 min
Bit rate                                 : 28.9 kb/s
Count of elements                        : 1566
Stream size                              : 18.0 MiB (0%)
Language                                 : German
Default                                  : No
Forced                                   : No

Text #2
ID                                       : 4
Format                                   : PGS
Muxing mode                              : zlib
Codec ID                                 : S_HDMV/PGS
Codec ID/Info                            : Picture based subtitle format used on BDs/HD-DVDs
Duration                                 : 1 h 10 min
Bit rate                                 : 799 b/s
Count of elements                        : 48
Stream size                              : 415 KiB (0%)
Title                                    : forced
Language                                 : German
Default                                  : No
Forced                                   : No

Menu
00:00:00.000                             : en:Chapter 01
00:09:23.313                             : en:Chapter 02
00:15:35.768                             : en:Chapter 03
00:20:10.835                             : en:Chapter 04
00:28:40.260                             : en:Chapter 05
00:34:59.431                             : en:Chapter 06
00:42:35.303                             : en:Chapter 07
00:50:12.551                             : en:Chapter 08
00:56:40.689                             : en:Chapter 09
01:04:36.790                             : en:Chapter 10
01:12:11.327                             : en:Chapter 11
01:20:43.505                             : en:Chapter 12
01:28:40.941                             : en:Chapter 13
01:32:26.124                             : en:Chapter 14
01:32:26.374                             : en:Chapter 15
[/url]



                                                                                                                                                                                                        
                                                                                                                                                                                                                                                                                                                                                                                                                                                                                                                                                                                                                                                                                                                                                                                                                                                        
2da2d35e7ae4bddfe64e6c53bcb42a29.zip (36.38 KB, 下载次数: 0)

回复

使用道具 举报

小黑屋|西西论坛

本网站所有资源来自网络,如无意中侵犯了您的权益,请发邮件至 [email protected],立即清除相关链接

GMT+8, 2021-3-2 02:40 , Processed in 0.087786 second(s), 23 queries .

Powered by Discuz! X3.2

© 2001-2013 Comsenz Inc.

快速回复 返回顶部 返回列表