西西论坛

 找回密码
 立即注册
搜索

泰迪·彭德格拉斯:如果你不认识我 Teddy.Pendergrass.If.You.Dont.Kn... ...

[复制链接]
电影首发 发表于 2021-2-1 20:07:45 | 显示全部楼层 |阅读模式
-->
帖子完整标题:泰迪·彭德格拉斯:如果你不认识我 Teddy.Pendergrass.If.You.Dont.Know.Me.2018.1080p.BluRay.x264-HANDJOB 8.18GB


[/url]

◎译  名 泰迪·彭德格拉斯:如果你不认识我
◎片  名 Teddy Pendergrass: If You Don't Know Me
◎年  代 2018
◎产  地 英国
◎类  别 纪录片 / 音乐
◎语  言 英语
◎上映日期 2018-02-22(英国)
◎IMDb评分  7.6/10 from 346 users
◎  
◎豆瓣评分 /10 from 0 users
◎ 
◎片  长 106分钟
◎导  演 Olivia Lichtenstein
◎主  演 Anthony Samuels
       Teddy Pendergrass

◎标  签 纪录片 | Documentary | 2018 | 音乐 | teddypendergrass | WEB | Biography | 2010s

◎简  介

  This documentary explores the rise of Teddy Pendergrass, the first male African American artist to record five consecutive platinum albums against the backdrop of 1960s America, and his comeback after a life-changing accident.
Video
ID                                       : 1
Format                                   : AVC
Format/Info                              : Advanced Video Codec
Format profile                           :
Format settings                          : CABAC / 4 Ref Frames
Format settings, CABAC                   : Yes
Format settings, Reference frames        : 4 frames
Codec ID                                 : V_MPEG4/ISO/AVC
Duration                                 : 1 h 46 min
Bit rate                                 : 10.4 Mb/s
Width                                    : 1 920 pixels
Height                                   : 1 080 pixels
Display aspect ratio                     : 16:9
Frame rate mode                          : Constant
Frame rate                               : 24.000 FPS
Color space                              : YUV
Chroma subsampling                       : 4:2:0
Bit depth                                : 8 bits
Scan type                                : Progressive
Bits/(Pixel*Frame)                       : 0.209
Stream size                              : 7.71 GiB (94%)
Writing library                          : x264 core 157 r2935 545de2f
Encoding settings                        : cabac=1 / ref=4 / deblock=1:-3:-3 / analyse=0x3:0x133 / me=umh / subme=10 / psy=1 / psy_rd=1.00:0.00 / mixed_ref=1 / me_range=32 / chroma_me=1 / trellis=2 / 8x8dct=1 / cqm=0 / deadzone=21,11 / fast_pskip=0 / chroma_qp_offset=-2 / threads=34 / lookahead_threads=8 / sliced_threads=0 / nr=0 / decimate=0 / interlaced=0 / bluray_compat=0 / constrained_intra=0 / bframes=16 / b_pyramid=2 / b_adapt=2 / b_bias=0 / direct=3 / weightb=1 / open_gop=0 / weightp=2 / keyint=240 / keyint_min=24 / scenecut=40 / intra_refresh=0 / rc_lookahead=60 / rc=crf / mbtree=0 / crf=17.0 / qcomp=0.60 / qpmin=0 / qpmax=69 / qpstep=4 / vbv_maxrate=62500 / vbv_bufsize=78125 / crf_max=0.0 / nal_hrd=none / filler=0 / ip_ratio=1.40 / pb_ratio=1.30 / aq=2:1.00
Default                                  : Yes
Forced                                   : No
Color range                              : Limited
Color primaries                          : BT.709
Transfer characteristics                 : BT.709
Matrix coefficients                      : BT.709

Audio
ID                                       : 2
Format                                   : AC-3
Format/Info                              : Audio Coding 3
Commercial name                          : Dolby Digital
Codec ID                                 : A_AC3
Duration                                 : 1 h 46 min
Bit rate mode                            : Constant
Bit rate                                 : 640 kb/s
Channel(s)                               : 6 channels
Channel layout                           : L R C LFE Ls Rs
Sampling rate                            : 48.0 kHz
Frame rate                               : 31.250 FPS (1536 SPF)
Compression mode                         : Lossy
Stream size                              : 485 MiB (6%)
Language                                 : English
Service kind                             : Complete Main
Default                                  : Yes
Forced                                   : No

Text
ID                                       : 3
Format                                   : UTF-8
Codec ID                                 : S_TEXT/UTF8
Codec ID/Info                            : UTF-8 Plain Text
Duration                                 : 1 h 45 min
Bit rate                                 : 77 b/s
Count of elements                        : 1639
Stream size                              : 59.8 KiB (0%)
Language                                 : English
Default                                  : Yes
Forced                                   : No

Menu
00:00:00.000                             : en:Chapter 1
00:02:33.667                             : en:Chapter 2
00:11:37.042                             : en:Chapter 3
00:22:28.500                             : en:Chapter 4
00:27:37.375                             : en:Chapter 5
00:42:25.333                             : en:Chapter 6
00:51:34.542                             : en:Chapter 7
00:59:51.667                             : en:Chapter 8
01:13:26.625                             : en:Chapter 9
01:25:32.708                             : en:Chapter 10
01:34:50.333                             : en:Chapter 11
01:43:16.167                             : en:Chapter 12
[/url][/url][/url]



                                                                                                                                                                                                        
                                                                                                                                                                                                                                                                                                                                                                                                                                                                                                                                                                                                                                                                                                                                                                                                                                                        
98f60957dcc35f088cdbd251804c87e4.zip (41.61 KB, 下载次数: 0)

回复

使用道具 举报

小黑屋|西西论坛

本网站所有资源来自网络,如无意中侵犯了您的权益,请发邮件至 [email protected],立即清除相关链接

GMT+8, 2021-3-9 08:05 , Processed in 0.094628 second(s), 23 queries .

Powered by Discuz! X3.2

© 2001-2013 Comsenz Inc.

快速回复 返回顶部 返回列表