西西论坛

 找回密码
 立即注册
搜索

贼博士/老妇杀手团 The.Ladykillers.1955.REMASTERED.720p.BluRay.x264-GA...

[复制链接]
电影首发 发表于 2021-2-1 19:42:15 | 显示全部楼层 |阅读模式
-->
帖子完整标题:贼博士/老妇杀手团 The.Ladykillers.1955.REMASTERED.720p.BluRay.x264-GAZER 5.07GB


[/url]

◎译  名 贼博士/老妇杀手团/贵妇杀手
◎片  名 The Ladykillers
◎年  代 1955
◎产  地 英国
◎类  别 喜剧 / 惊悚 / 犯罪
◎语  言 英语
◎上映日期 1955-12-01
◎IMDb评分  7.7/10 from 26448 users
◎  
◎豆瓣评分 7.6/10 from 2631 users
◎ 
◎片  长 91 分钟
◎导  演 亚历山大·麦肯德里克 Alexander Mackendrick
◎编  剧 威廉·罗斯 William Rose / Jimmy O'Connor
◎主  演 亚历克·吉尼斯 Alec Guinness
       西塞尔·帕克 Cecil Parker
       赫伯特·罗姆 Herbert Lom
       彼得·塞勒斯 Peter Sellers
       凯蒂·约翰逊 Katie Johnson
       尤安·罗伯茨 Ewan Roberts
       斯特拉特福德·约翰斯 Stratford Johns
       Jack Melford
       Arthur Mullard
       尼尔·威尔森 Neil Wilson
       Peter Williams
       菲利普·斯坦顿 Philip Stainton
       山姆·基德 Sam Kydd
       弗雷德·格里菲思 Fred Griffiths
       伊迪·马丁 Edie Martin
       Danny Green
       弗兰基·豪尔德 Frankie Howerd
       杰克·华纳 Jack Warner
       Kenneth Connor
       Hélène Burls
       Vincent Holman
       Harold Goodwin

◎标  签 英国 | 喜剧 | 犯罪 | 黑色幽默 | 英国电影 | 1950s | 1955 | AlexanderMackendrick

◎简  介

  怀博菲丝太太在警察局自称见到不明飞行物被警察赶了出去。
  
  一个乐队跑去了怀博菲丝太太的住所,他们希望能借住在这里创造一首新歌。其实他们正计划抢劫运钞车,他们在怀博菲丝太太的公寓筹备着整个计划,而怀博菲丝太太还蒙在鼓里。
  
  当他们成功的抢劫了运钞车之后,事情也终于让怀博菲丝太太发现了,他们决定将怀博菲丝太太杀掉一了百了,但他们却都因为不同的原因相继死去。
  
  老太太去警察局报案,警察却因为之前的“不明飞行物事件”完全否定怀博菲丝太太的说法,最后那笔钱全成了老太太一个人的。
  
  讲述一群智商不高的盗贼想不到会栽在一个小老太太手里。居住在伦敦的怀博菲丝太太到警察局自称见到不明飞行物,被警察赶了出去。一个乐队来到菲丝太太的住所租房子,说要在这里搞创作。其实他们是一伙窃贼,正计划抢劫运钞车,要在菲丝太太的公寓做准备,而她还蒙在鼓里。当他们抢劫成功后,菲丝太太也终于发现了真相,于是他们决定将菲丝太太灭口,然而这个老太太似乎不是看上去那么好对付,窃贼们全都因为不同的原因相继死去。老太太去警局报案,警察却因为之前的“不明飞行物事件”完全否定菲丝太太的说法,最后那笔钱全成了老太太一个人的。

◎获奖情况

  第29届奥斯卡金像奖 ?(1957)
  最佳原创剧本(提名) 威廉·罗斯
Video
ID                                       : 1
Format                                   : AVC
Format/Info                              : Advanced Video Codec
Format profile                           :
Format settings                          : CABAC / 11 Ref Frames
Format settings, CABAC                   : Yes
Format settings, Reference frames        : 11 frames
Codec ID                                 : V_MPEG4/ISO/AVC
Duration                                 : 1 h 30 min
Bit rate                                 : 7 503 kb/s
Width                                    : 986 pixels
Height                                   : 720 pixels
Display aspect ratio                     : 4:3
Frame rate mode                          : Constant
Frame rate                               : 24.000 FPS
Color space                              : YUV
Chroma subsampling                       : 4:2:0
Bit depth                                : 8 bits
Scan type                                : Progressive
Bits/(Pixel*Frame)                       : 0.440
Stream size                              : 4.75 GiB (94%)
Writing library                          : x264 core 161 r3027 4121277
Encoding settings                        : cabac=1 / ref=11 / deblock=1:-3:-3 / analyse=0x3:0x133 / me=umh / subme=10 / psy=1 / psy_rd=1.50:0.15 / mixed_ref=1 / me_range=24 / chroma_me=1 / trellis=2 / 8x8dct=1 / cqm=0 / deadzone=21,11 / fast_pskip=0 / chroma_qp_offset=-3 / threads=6 / lookahead_threads=1 / sliced_threads=0 / nr=0 / decimate=0 / interlaced=0 / bluray_compat=0 / constrained_intra=0 / bframes=8 / b_pyramid=2 / b_adapt=2 / b_bias=0 / direct=3 / weightb=1 / open_gop=0 / weightp=2 / keyint=250 / keyint_min=24 / scenecut=40 / intra_refresh=0 / rc_lookahead=60 / rc=crf / mbtree=1 / crf=18.5 / qcomp=0.60 / qpmin=0 / qpmax=69 / qpstep=4 / ip_ratio=1.40 / aq=3:0.50
Default                                  : Yes
Forced                                   : No
Color range                              : Limited
Matrix coefficients                      : BT.709

Audio #1
ID                                       : 2
Format                                   : FLAC
Format/Info                              : Free Lossless Audio Codec
Codec ID                                 : A_FLAC
Duration                                 : 1 h 30 min
Bit rate mode                            : Variable
Bit rate                                 : 337 kb/s
Channel(s)                               : 2 channels
Channel layout                           : L R
Sampling rate                            : 48.0 kHz
Frame rate                               : 11.719 FPS (4096 SPF)
Bit depth                                : 16 bits
Compression mode                         : Lossless
Stream size                              : 218 MiB (4%)
Writing library                          : libFLAC 1.3.2 (UTC 2017-01-01)
Language                                 : English
Default                                  : Yes
Forced                                   : No

Audio #2
ID                                       : 3
Format                                   : AAC LC
Format/Info                              : Advanced Audio Codec Low Complexity
Codec ID                                 : A_AAC-2
Duration                                 : 1 h 30 min
Bit rate                                 : 91.1 kb/s
Channel(s)                               : 2 channels
Channel layout                           : L R
Sampling rate                            : 48.0 kHz
Frame rate                               : 46.875 FPS (1024 SPF)
Compression mode                         : Lossy
Delay relative to video                  : 20 ms
Stream size                              : 59.1 MiB (1%)
Title                                    : Commentary
Language                                 : English
Default                                  : No
Forced                                   : No

Text #1
ID                                       : 4
Format                                   : PGS
Muxing mode                              : zlib
Codec ID                                 : S_HDMV/PGS
Codec ID/Info                            : Picture based subtitle format used on BDs/HD-DVDs
Duration                                 : 1 h 28 min
Bit rate                                 : 41.0 kb/s
Count of elements                        : 2346
Stream size                              : 25.9 MiB (0%)
Title                                    : SDH
Language                                 : English
Default                                  : No
Forced                                   : No

Text #2
ID                                       : 5
Format                                   : PGS
Muxing mode                              : zlib
Codec ID                                 : S_HDMV/PGS
Codec ID/Info                            : Picture based subtitle format used on BDs/HD-DVDs
Duration                                 : 1 h 30 min
Bit rate                                 : 61.1 kb/s
Count of elements                        : 3192
Stream size                              : 39.3 MiB (1%)
Title                                    : Commentary
Language                                 : English
Default                                  : No
Forced                                   : No

Text #3
ID                                       : 6
Format                                   : PGS
Muxing mode                              : zlib
Codec ID                                 : S_HDMV/PGS
Codec ID/Info                            : Picture based subtitle format used on BDs/HD-DVDs
Duration                                 : 1 h 30 min
Bit rate                                 : 61.9 kb/s
Count of elements                        : 2370
Stream size                              : 39.9 MiB (1%)
Title                                    : Commentary
Language                                 : German
Default                                  : No
Forced                                   : No

Text #4
ID                                       : 7
Format                                   : PGS
Muxing mode                              : zlib
Codec ID                                 : S_HDMV/PGS
Codec ID/Info                            : Picture based subtitle format used on BDs/HD-DVDs
Duration                                 : 1 h 28 min
Bit rate                                 : 31.6 kb/s
Count of elements                        : 2070
Stream size                              : 20.0 MiB (0%)
Language                                 : German
Default                                  : No
Forced                                   : No

Menu
00:00:00.000                             : en:Chapter 01
00:08:00.208                             : en:Chapter 02
00:18:14.375                             : en:Chapter 03
00:25:27.333                             : en:Chapter 04
00:31:47.458                             : en:Chapter 05
00:38:20.292                             : en:Chapter 06
00:45:58.958                             : en:Chapter 07
00:52:51.250                             : en:Chapter 08
01:04:29.667                             : en:Chapter 09
01:10:36.500                             : en:Chapter 10
01:18:22.750                             : en:Chapter 11
01:27:37.083                             : en:Chapter 12




                                                                                                                                                                                                        
                                                                                                                                                                                                                                                                                                                                                                                                                                                                                                                                                                                                                                                                                                                                                                                                                                                        
4732b796e983ec78010823c1367f11d4.zip (26.07 KB, 下载次数: 0)

回复

使用道具 举报

小黑屋|西西论坛

本网站所有资源来自网络,如无意中侵犯了您的权益,请发邮件至 [email protected],立即清除相关链接

GMT+8, 2021-3-9 08:45 , Processed in 0.088382 second(s), 23 queries .

Powered by Discuz! X3.2

© 2001-2013 Comsenz Inc.

快速回复 返回顶部 返回列表